v

您的位置:VeryCD音乐欧美音乐

音乐资源事务区


Tom Verlaine, etc -《Television (ape损坏,重抓为flac) 》[FLAC]

  • 状态: 精华资源
  • 摘要:
    发行时间1992年
    地区美国
    语言英语
  • 时间: 2009/06/09 22:38:08 发布 | 2009/06/15 02:23:14 更新
  • 分类: 音乐  欧美音乐 

tompatti

精华资源: 13

全部资源: 13

相关: 分享到新浪微博   转播到腾讯微博   分享到开心网   分享到人人   分享到QQ空间   订阅本资源RSS更新   美味书签  subtitle
该内容尚未提供权利证明,无法提供下载。
专辑英文名Television (ape损坏,重抓为flac)
资源格式FLAC
发行时间1992年
地区美国
语言英语
简介

IPB Image

2009年6月15日更新为flac格式。原来的ape格式经jumpband朋友提醒文件损坏。在此致以感谢和对已经在下载的朋友们的抱歉!

喜欢Television的朋友怎么能错过这张专辑。

1973年成立的“电视”诞生于世界著名的摇滚朋克酒吧CBGB,虽然仅仅存活了5年的时间,却成为影响了 The Strokes、Sonic Youth、Radiohead等乐队的纽约朋克主体。他们的名字是对电视的抗议,又是对那个摇滚核心人物TomVerlaine的记载。

Television乐队这个曾经影响过无数音乐人的乐队,每个成员都是明星和艺术家。乐队的核心人物是汤姆费莱纳(Tom Verlaine),不过这个名字是后改的。另一个改名的人是乐队的吉他手Richard Hell,他原名Meyers,后自己改做Hell(地狱)。汤姆费莱纳于1949年生人,68年移居先锋诞出的格林尼治村,早先是个古典钢琴演奏家。70年代,他和他的两个朋友Richard Hell和Billy Ficca组建了乐队The Neon Boys(霓虹男孩),他担任吉他手、主唱和键盘,Hell担任贝斯,Ficca是鼓。之后,确切的说是1973年,节奏吉他手Richard Lloyd加入,乐队更名为Television并开始在纽约的Town House演出,也得到了很多地下音乐爱好者的追随。1973年是一个比性手枪还老的年份,事实上他们也的确影响了性手枪--此时,随着他们的乐迷越来越多,Television开始在纽约著名的CBGB俱乐部演出,为美国的朋克运动烧上了自己的一把火。再再之后,Elektra和他们签约,并有了他们的第一张正式的专辑Marquee Moon。这也是公认他们最好的一张专辑。这张专辑在本土美国反响平平,但在英国却好评如潮。这也是CBGB时代中的普遍现象--包括雷蒙斯, 再再再之后,这支辉煌的乐队解散了,仅仅存在了五年。主唱个人发展,也出了一些专辑,并有自己的拥护者(基本是Television的拥护者),比如David Bowie。除此以外,他还作为吉他手和Arranger出现在Patti Smith的几张专辑中,最后的动向是Jeff Buckley专辑的制作人和混音师。吉他手Lloyd也发行了自己的专辑;至于Richard Hell,除了最为著名的Voidoids乐队以外,还组建过Dim Stars(暗星)和The Heartbreakers(碎心人),和他合作的分别是Sonic Youth的灵魂人物和New York Dolls的吉他手。
  Television的曲势和节奏复杂异常,远不是普通的朋克乐队乃至摇滚乐队可以做到的。更为难得的是,在这样复杂的曲势下还有着充满感情和灵性的吉他弹奏。他们洞悉和掌握了音乐的语言。他们明白他们所要的表达内容和表达方式。这也正说明了他们并不把音乐当作玩具或者言论载体。
  乐队取名为Television,没有人解释为什么。也许是因为Tom Verlaine连起来恰好是TV,也许是因为电视在当时正在成为垃圾中产慢性自杀的主要方法。包括音乐电视在内的很多大工业生产附属品都是地地道道的美国产物。空洞的欲望,永无休止的广告,放大的空虚在整个城市上空飘荡。而这些青春期的少年,带着早熟的暴力,拒绝进入污秽的成人世界。乐队以诗人的敏感找到了这个时代的反讽,把它用作了自己的标志。

补充log信息:
Exact Audio Copy V0.99 prebeta 5 from 4. May 2009

EAC extraction logfile from 12. June 2009, 11:40

Television / Television

Used drive : HL-DT-STDVD-ROM GDR8163B Adapter: 3 ID: 0

Read mode : Secure
Utilize accurate stream : Yes
Defeat audio cache : Yes
Make use of C2 pointers : No

Read offset correction : 102
Overread into Lead-In and Lead-Out : Yes
Fill up missing offset samples with silence : Yes
Delete leading and trailing silent blocks : No
Null samples used in CRC calculations : No
Used interface : Native Win32 interface for Win NT & 2000

Used output format : Internal WAV Routines
Sample format : 44.100 Hz; 16 Bit; Stereo


TOC of the extracted CD

Track | Start | Length | Start sector | End sector
---------------------------------------------------------
1 | 0:00.00 | 3:41.63 | 0 | 16637
2 | 3:41.63 | 4:21.65 | 16638 | 36277
3 | 8:03.53 | 4:12.27 | 36278 | 55204
4 | 12:16.05 | 4:16.18 | 55205 | 74422
5 | 16:32.23 | 4:47.45 | 74423 | 95992
6 | 21:19.68 | 5:00.50 | 95993 | 118542
7 | 26:20.43 | 4:22.50 | 118543 | 138242
8 | 30:43.18 | 3:23.10 | 138243 | 153477
9 | 34:06.28 | 3:42.52 | 153478 | 170179
10 | 37:49.05 | 4:56.28 | 170180 | 192407


Range status and errors

Selected range

Filename H:\QVOD_Media\Television - Television.wav

Peak level 100.0 %
Range quality 100.0 %
Copy CRC 068CE3B9
Copy OK

No errors occurred

End of status report



专辑曲目

专辑曲目:

1. 1880 Or So 3:41
2. Shane, She Wrote This 4:21
3. In World 4:12
4. Call Mr. Lee 4:16
5. Rhyme 4:47
6. No Glamour For Willi 5:00
7. Beauty Trip 4:22
8. The Rocket 3:23
9. This Tune 3:42
10. Mars 4:56

正在读取……

这里是其它用户补充的资源(我也要补充):

暂无补充资源
正在加载,请稍等...

点击查看所有15网友评论

 

(?) [公告]留口水、评论相关规则 | [活动]每日签到 轻松领取电驴经验

    小贴士:
  1. 类似“顶”、“沙发”之类没有营养的文字,对勤劳贡献的楼主来说是令人沮丧的反馈信息。
  2. 提问之前请再仔细看一遍楼主的说明,或许是您遗漏了。
  3. 勿催片。请相信驴友们对分享是富有激情的,如果确有更新版本,您一定能搜索到。
  4. 请勿到处挖坑绊人、招贴广告。既占空间让人厌烦,又没人会搭理,于人于己都无利。
  5. 如果您发现自己的评论不见了,请参考以上4条。