v

您的位置:VeryCD音乐其它音乐

音乐资源事务区


四郎曲珍 -《月光下的布达拉》[皇帝位][黑胶DTS-ES 6.1CD][DTS]

  • 状态: 精华资源
  • 摘要:
    音乐类型试音碟
    发行时间2007年
  • 时间: 2009/06/03 11:02:14 发布 | 2009/06/15 05:15:57 更新
  • 分类: 音乐  其它音乐 

royakey050

精华资源: 64

全部资源: 64

相关: 分享到新浪微博   转播到腾讯微博   分享到开心网   分享到人人   分享到QQ空间   订阅本资源RSS更新   美味书签  subtitle
该内容尚未提供权利证明,无法提供下载。
专辑中文名月光下的布达拉
艺术家四郎曲珍
音乐类型试音碟
资源格式DTS
版本[皇帝位][黑胶DTS-ES 6.1CD]
发行时间2007年
地区大陆
语言普通话,藏语
简介

IPB Image

出版社:中国唱片广州公司
ISRC:CN-F13-07-401-00/A.J6

专辑介绍:

藏风特色配器注入现代音乐新元素,高高雪山辽阔草原,犹如置身其中的最真实感受;碧草蓝天,犹如天之仙子放歌在雪域高原。

淡淡的,柔柔的,天籁般的歌声从天边回来……


歌手简介:

四郎曲珍·来自着名的香巴拉神殿·格萨尔王故里-德格县,从小热爱声乐演出,在亚东《故乡·卓玛》中,以一曲悠扬《牧人》迅速成名后,出版第一张个人专辑《吉祥的酥油灯》

四郎曲珍曾在首届“西部康定情歌节”声乐大赛中获得一等奖,四川省民族歌手乐手电视大奖赛中,获得声乐一等奖,四川省少数民族艺术节声乐三等奖,十一届全国青年歌手大奖赛四川赛区民族唱法一等奖,高城杯声乐大赛一等奖,全国十佳歌手。


CUE:

代码
PERFORMER "四郎曲珍"
TITLE "月光下的布达拉DTS"
FILE "四郎曲珍.-.[月光下的布达拉].专辑.(DTS).dts" WAVE
  TRACK 01 AUDIO
    TITLE "天歌"
    INDEX 01 00:00:00
  TRACK 02 AUDIO
    TITLE "杜鹃"
    INDEX 00 04:48:38
    INDEX 01 04:50:38
  TRACK 03 AUDIO
    TITLE "山水知音"
    INDEX 00 08:29:18
    INDEX 01 08:31:18
  TRACK 04 AUDIO
    TITLE "坐上火车去拉萨"
    INDEX 00 12:51:02
    INDEX 01 12:53:02
  TRACK 05 AUDIO
    TITLE "吉祥的酥油灯"
    INDEX 00 17:09:29
    INDEX 01 17:11:29
  TRACK 06 AUDIO
    TITLE "阿爸"
    INDEX 00 22:17:24
    INDEX 01 22:19:24
  TRACK 07 AUDIO
    TITLE "我愿"
    INDEX 00 27:31:31
    INDEX 01 27:33:31
  TRACK 08 AUDIO
    TITLE "天上西藏"
    INDEX 00 31:19:34
    INDEX 01 31:21:34
  TRACK 09 AUDIO
    TITLE "在那东山顶上"
    INDEX 00 36:08:34
    INDEX 01 36:10:34
  TRACK 10 AUDIO
    TITLE "心上人"
    INDEX 00 40:41:44
    INDEX 01 40:43:44
  TRACK 11 AUDIO
    TITLE "天路"
    INDEX 00 44:56:09
    INDEX 01 44:58:09
  TRACK 12 AUDIO
    TITLE "月光下的布达拉"
    INDEX 00 49:15:58
    INDEX 01 49:17:58


EAC抓轨日志:

代码
Exact Audio Copy V0.99 prebeta 5 from 4. May 2009

EAC 抓取日志文件从1. 六月 2009, 3:55

四郎曲珍 / 月光下的布达拉

使用驱动器  :UXAD    E78DAVWP6F   Adapter: 4  ID: 0

读取模式     : 保护
使用精确流   : 是
废除音频缓冲 : 是
使用 C2 指针 : 否

读取偏移校正                   : 0
读取 Lead-In 和 Lead-Out       : 否
用静音填充抓取中丢失偏移的采样 : 是
去除首尾静音块                 : 否
在 CRC 计算中使用了空样本      : 是
已用接口                       : Win NT 及 2000 本地 Win32 接口

所用输出格式 : 内部 WAV 函数
样本格式     : 44.100 Hz;16 Bit;立体声


被抓轨 CD 的 TOC

     音轨 |   开始   |   长度   | 起始扇区 | 结尾扇区
    --------------------------------------------------
       1  |  0:00.00 |  4:50.38 |       0  |   21787  
       2  |  4:50.38 |  3:40.55 |   21788  |   38342  
       3  |  8:31.18 |  4:21.59 |   38343  |   57976  
       4  | 12:53.02 |  4:18.27 |   57977  |   77353  
       5  | 17:11.29 |  5:07.70 |   77354  |  100448  
       6  | 22:19.24 |  5:14.07 |  100449  |  124005  
       7  | 27:33.31 |  3:48.03 |  124006  |  141108  
       8  | 31:21.34 |  4:49.00 |  141109  |  162783  
       9  | 36:10.34 |  4:33.10 |  162784  |  183268  
      10  | 40:43.44 |  4:14.40 |  183269  |  202358  
      11  | 44:58.09 |  4:19.49 |  202359  |  221832  
      12  | 49:17.58 |  3:48.57 |  221833  |  238989  


范围状态及错误

已选择范围

     文件名 D:\Music\四郎曲珍 - 月光下的布达拉.wav

     峰值电平 100.0 %
     范围质量 100.0 %
     复制 CRC D8887566
     复制成功

没有错误发生

状态报告结尾



专辑曲目

01. 天歌
02. 杜鹃
03. 山水知音
04. 坐上火车去拉萨
05. 吉祥的酥油灯
06. 阿爸
07. 我愿
08. 天上西藏
09. 在那东山顶上
10. 心上人
11. 天路
12. 月光下的布达拉

正在读取……

这里是其它用户补充的资源(我也要补充):

暂无补充资源
正在加载,请稍等...

点击查看所有71网友评论

 

(?) [公告]留口水、评论相关规则 | [活动]每日签到 轻松领取电驴经验

    小贴士:
  1. 类似“顶”、“沙发”之类没有营养的文字,对勤劳贡献的楼主来说是令人沮丧的反馈信息。
  2. 提问之前请再仔细看一遍楼主的说明,或许是您遗漏了。
  3. 勿催片。请相信驴友们对分享是富有激情的,如果确有更新版本,您一定能搜索到。
  4. 请勿到处挖坑绊人、招贴广告。既占空间让人厌烦,又没人会搭理,于人于己都无利。
  5. 如果您发现自己的评论不见了,请参考以上4条。