v

您的位置:VeryCD综艺纪录片

综艺资源事务区


《History Channel - 李小龙如何改变了世界》(How Bruce Lee Changed the World)HDTVRip

  • 状态: 精华资源
  • 摘要:
    发行时间2009年05月17日
    地区美国
    语言英语
  • 时间: 2009/06/01 06:07:38 发布 | 2009/06/01 13:07:18 更新
  • 分类: 综艺  纪录片 

sooocool

精华资源: 1

全部资源: 1

相关: 分享到新浪微博   转播到腾讯微博   分享到开心网   分享到人人   分享到QQ空间   订阅本资源RSS更新   美味书签  subtitle
该内容尚未提供权利证明,无法提供下载。
中文名History Channel - 李小龙如何改变了世界
英文名How Bruce Lee Changed the World
版本HDTVRip
发行时间2009年05月17日
制作发行历史频道
地区美国
语言英语
简介

IPB Image
http://i35.photobucket.com/albums/d160/justinyourmouth1/BruceLeeCollagecopy.jpg

● 译  名 李小龙如何改变了世界
● 片  名 How Bruce Lee Changed the World
● 年  代 2009
● 国  家 美国
● 类  别 纪录片
● 语  言 英语
● 字  幕 暂无
● IMDB评分 6.6/10 (10 votes)
● IMDB链接 http://www.imdb.com/title/tt1437833/
● 文件格式 Xvid+mp3
● 视频尺寸 624 x 352
● 文件大小 702Mb
● 色  彩 彩色
● 片  长 90 min
● 导  演 Steve Webb ....(documentary director)
● 主  演 卡里姆·阿卜杜尔-贾巴尔 Kareem Abdul-Jabbar
成龙 Jackie Chan ....Himself
Margaret Cho ....Interviewee




● 简  介 







迅捷如闪电般的身手,钢铁一样的身体,永远充沛的精力,渊博的中国武术知识,这就是李小龙在世界人民中的形象,他惊人的技击能力为他带来了显赫的名声和世界范围内广为流传的电影作品,但是有多少人了解这个男人铁拳快腿后面真实的一面。




http://ezine.kungfumagazine.com/images/ezine/0912ShannonLee.jpg
Shannon Lee





美国历史频道推出李小龙纪念特辑《李小龙如何改变了世界》(How Bruce Lee Changed the World),本片由李小龙遗孀琳达和女儿李香凝监制,通过长达两小时的节目告诉你小龙的整个一生,从在美国三藩市呱呱落地到他与《龙争虎斗》公映前三个星期神秘死亡,让人唏嘘不已的是这是他唯一的美国电影。本片不仅仅是一个传记,而是着重探讨李小龙对全球电影、音乐、体育、设计、时装、哲学等等领域的影响,通过本片小龙一生的介绍,我们可以了解到李小龙如何把古老的武术带进我们现代社会,并且在我们的流行文化中永久的占据一席之地。

美国历史频道认为李小龙是一位伟大的武术家,是世界公认的把古老的中国武术带进大众市场的人,李小龙获得世界大众的认可不仅仅在于他对电影和武术的革新性思想,还在于李小龙已经成为一个偶像符号,并永远的被后人传承下去,,他对现代大众流行文化的影响至今仍在继续,伴随珍贵的采访和李小龙基金会提供的难得一见的家庭录影资料,我们跟随李香凝穿越美国、亚洲、欧洲感受李小龙对流行文化的影响,通过一些深入的名人访谈得知他们如何从李小龙获得灵感,从而探索李小龙如何改变了这个世界。

访谈嘉宾包括从动作明星成龙、喜剧演员埃迪·格里芬(Eddie Griffin),导演吴宇森、布莱特·拉特纳(Brett Ratner),著名说唱歌手LL Cool J、RZA,美国漫画牛人Stan Lee,跑酷创始人Sebastian Foucan(过去访谈中曾提到自己从李小龙身上获得训练的灵感),以及李的朋友和生意伙伴香港著名电影制片人邹文怀。

最早公布的采访人员名单还包括演员李连杰、杨紫琼,UFC名将Randy Couture,UFC主席Dana White(其曾在过去的多次采访里称李小龙为“MMA之父”)等人,不知道最终版本是否加入。

本片将于5月17日晚上8点美国历史频道播出(18日上午12点重播),而片长94分钟的DVD将于2009年7月28日上市


(文/盒子)。





http://www.history.com/images/global/network_400x300.jpg



IPB Image

IPB Image

IPB Image

代码
Format                           : AVI
Format/Info                      : Audio Video Interleave
File size                        : 702 MiB
Duration                         : 1h 30mn
Overall bit rate                 : 1 085 Kbps
Writing application              : VirtualDubMod 1.5.10.2 (build 2540/release)
Writing library                  : VirtualDubMod build 2540/release

Video
Format                           : MPEG-4 Visual
Format profile                   : Streaming Video@L1
Format settings, BVOP            : Yes
Format settings, QPel            : No
Format settings, GMC             : No warppoints
Format settings, Matrix          : Default (H.263)
Codec ID                         : XVID
Codec ID/Hint                    : XviD
Duration                         : 1h 30mn
Bit rate                         : 948 Kbps
Width                            : 624 pixels
Height                           : 352 pixels
Display aspect ratio             : 16/9
Frame rate                       : 29.970 fps
Resolution                       : 24 bits
Colorimetry                      : 4:2:0
Scan type                        : Progressive
Bits/(Pixel*Frame)               : 0.144
Stream size                      : 614 MiB (87%)
Writing library                  : XviD 1.2.1 (UTC 2008-12-04)

Audio
Format                           : MPEG Audio
Format version                   : Version 1
Format profile                   : Layer 3
Codec ID                         : 55
Codec ID/Hint                    : MP3
Duration                         : 1h 30mn
Bit rate mode                    : Variable
Bit rate                         : 123 Kbps
Minimum bit rate                 : 128 Kbps
Channel(s)                       : 2 channels
Sampling rate                    : 48.0 KHz
Resolution                       : 16 bits
Stream size                      : 79.8 MiB (11%)
Alignment                        : Aligned on interleaves
Interleave, duration             : 24 ms (0.72 video frame)
Interleave, preload duration     : 517 ms
Writing library                  : LAME3.97b
Encoding settings                : ABR

正在读取……

这里是其它用户补充的资源(我也要补充):

暂无补充资源
正在加载,请稍等...

点击查看所有52网友评论

 

(?) [公告]留口水、评论相关规则 | [活动]每日签到 轻松领取电驴经验

    小贴士:
  1. 类似“顶”、“沙发”之类没有营养的文字,对勤劳贡献的楼主来说是令人沮丧的反馈信息。
  2. 提问之前请再仔细看一遍楼主的说明,或许是您遗漏了。
  3. 勿催片。请相信驴友们对分享是富有激情的,如果确有更新版本,您一定能搜索到。
  4. 请勿到处挖坑绊人、招贴广告。既占空间让人厌烦,又没人会搭理,于人于己都无利。
  5. 如果您发现自己的评论不见了,请参考以上4条。