v

您的位置:VeryCD音乐古典音乐

音乐资源事务区


Royal Opera House Covent Garden Orchestra, Richard Bonynge -《阿道夫·亚当:吉赛尔》(Adolphe Adam: Giselle)DECCA[APE]

  • 状态: 精华资源
  • 摘要:
    发行时间1996年09月02日
  • 时间: 2009/05/30 01:51:09 发布 | 2009/05/30 02:34:53 更新
  • 分类: 音乐  古典音乐 

music_wings

精华资源: 2

全部资源: 3

相关: 分享到新浪微博   转播到腾讯微博   分享到开心网   分享到人人   分享到QQ空间   订阅本资源RSS更新   美味书签  subtitle
该内容尚未提供权利证明,无法提供下载。
专辑英文名Adolphe Adam: Giselle
专辑中文名阿道夫·亚当:吉赛尔
资源格式APE
版本DECCA
发行时间1996年09月02日
地区英国
简介

IPB Image

指挥家:理查·波宁吉 (Richard Bonynge)
乐团::伦敦柯文特花园皇家歌剧院管弦乐团(Royal Opera House Covent Garden Orchestra)
唱片公司:DECCA
唱片编号:452 185-2
唱片数量:2CD
录音时间:1984年
资源出处:Emule,感谢原作者Maestro Donizetti

专辑简介:

《吉赛尔》开起19世纪大型芭蕾舞剧的先锋,为亚当正值28岁壮年时期完成此大作,同年1841年在巴黎歌剧院首演即大获成功,当时与他合作的有舞蹈设计家柯瑞里,担纲主角吉赛尔的是当时在欧洲崭露头角的名舞伶—卡洛塔葛丽西,以及编导朱尔培罗。出类拔萃的舞艺和精湛的舞台设计加上优异的编导,配上亚当美妙的芭蕾音乐,获得成功是想当然尔。亚当的创作灵感来自於德国诗人亨利希海涅的妖精故事。中世纪的德国有个古老传说:「有一位喜爱跳舞的少女,在要结婚前不幸去世了,到了冥界后变成了舞蹈妖精名叫「薇丽」,每到夜里会从坟中出来,诱惑年轻人并邀其狂舞而死。」亚当根据这样的情节为背景,创作了异於以往风格的芭蕾音乐。

故事的舞台背景是中世纪德国莱茵河畔的一个小村庄,浓密葱翠的森林,洋溢着牧歌的欢乐,在这庆丰收的节日里,一位领主艾尔伯特来到此地,天真活泼喜爱跳舞的村姑吉赛尔,被乔装农夫的艾尔伯特的风采所吸引,两人一见钟情,吉赛尔拒绝了原来在追求她的猎人布拉里昂,猎人看着这对相爱的情侣,心中妒忌不平,於是向众人揭示真相,说出了艾尔伯特的真实身分。吉赛尔如遭晴天霹雳痛不欲生,自知自己身分不配领主,悲从中来,独自狂舞不已,并拔起艾尔伯特的剑刺向自己胸膛,了断了自己的生命。

死去的吉赛尔,如传说中变成了「薇丽」,深夜里在林中一片广阔的野地,被女魔王「蜜儿塔」与「薇丽」舞精灵们引出,并加入了这群「薇丽」中,夜夜舞到黎明。猎人布拉里昂最先来到这哩,成了「薇丽」饵食的对象,被邀而狂舞致死,随后艾尔伯特也来悼念吉赛尔了,吉赛尔的幽灵在她身边若隐若现,围绕着他而舞,女魔王「蜜儿塔」命令吉赛尔诱惑艾尔伯特,并狂舞不停,死后仍然爱着艾尔伯特的吉赛尔,不忍让他牺牲性命,因此偷偷告诉艾尔伯特,千万不可离开墓碑上的十字架。可是当艾尔伯特看到吉赛尔跳着令人神昏颠倒的舞姿时,竟然忘了吉赛尔的警告,忍不住离开了十字架,与她共舞起来,当千钧一髮危险将至之际,远处传来了教堂的黎明钟声,艾尔伯特终於心力交瘁昏倒於地,女魔王「蜜儿塔」招回「薇丽」们,吉赛尔在大地中消失了,艾尔伯特从此失去了纯洁可爱的吉赛尔了。

这部具浪漫又富於幻想的芭蕾舞剧,不同於以往的芭蕾音乐,亚当打破了杵臼,给豋场的每个人物有其代表性的特定主题与旋律,再配合故事情节而加以变化,亚当的作曲新手法,开拓了近代芭蕾舞曲的新里程。他在不算老的年纪即离开人世,而他这部凄美动人的芭蕾舞剧,历久不衰,至今人们仍然沉醉其中。同时吉赛尔这个角色,已成了芭蕾舞者技巧是否成熟的试金石。

-----------------------------

阿道夫‧亚当,1803年生于巴黎,1856年卒于巴黎,法国作曲家,为布瓦尔迪厄的学生。亚当生长在法国的一个音乐家庭中,父亲是个钢琴家,但是亚当似乎也和有些音乐家的际遇相同,父亲极度反对他学音乐,刚开始偷偷的秘密学习,最后战胜父亲的反对,那得有坚毅不移的精神和努力不懈的学习。亚当终於如愿以偿进入巴黎音乐院。同时在1844年开始任教於母校。他作品有宗教音乐、钢琴曲和歌唱曲等,但主要的作品是歌剧芭蕾与芭蕾音乐,尤其在喜歌剧上最有成就。一生作喜歌剧39部和数部芭蕾舞剧,现在音乐会上经常演出的曲目,只有一部《吉赛尔》。

-----------------------------

理查·波宁吉(Richard Bonynge,1930-),澳大利亚指挥家。就学于悉尼和英国皇家音乐学院,1962年在罗马初次担任指挥登台,由于波宁吉担任过歌唱家的钢琴伴奏,对美声唱法有兴趣,也深入研究过芭蕾音乐。与萨瑟兰结婚后,潜心于研究歌剧与芭蕾音乐,先后任悉尼歌剧院音乐总监、安布罗西亚歌剧院、科文特花园剧院指挥。波宁吉对芭蕾音乐的节奏有非凡的把握能力,是少数几个指挥芭蕾音乐的权威。由于对歌剧艺术的深入研究,他和萨瑟兰、帕瓦罗蒂合作的歌剧作品都具有相当的水准,其中尤以贝里尼、多尼采蒂和莫扎特的歌剧为出色。

IPB ImageIPB ImageIPB ImageIPB Image

-----------------------------

此资源来自Emule,APE分轨,以下为我自己编辑的cue内容:

CD 1

PERFORMER "Orchestra of the Royal Opera House / Richard Bonynge"
SONGWRITER "Adam Adolphe"
TITLE "Giselle, ACT I"
FILE "01 - Introduction.ape" WAVE
TRACK 01 AUDIO
TITLE "Introduction"
INDEX 01 00:00:00
FILE "02 - Les Vendangeurs.ape" WAVE
TRACK 02 AUDIO
TITLE "Les Vendangeurs"
INDEX 01 00:00:00
FILE "03 - Entree de Loys.ape" WAVE
TRACK 03 AUDIO
TITLE "Entree de Loys"
INDEX 01 00:00:00
FILE "04 - Entree de Giselle.ape" WAVE
TRACK 04 AUDIO
TITLE "Entree de Giselle"
INDEX 01 00:00:00
FILE "05 - Retour de la vendange et valse.ape" WAVE
TRACK 05 AUDIO
TITLE "Retour de la vendange et valse"
INDEX 01 00:00:00
FILE "06 - La chasse.ape" WAVE
TRACK 06 AUDIO
TITLE "La chasse"
INDEX 01 00:00:00
FILE "07 - Scene d'Hilarion.ape" WAVE
TRACK 07 AUDIO
TITLE "Scene d'Hilarion"
INDEX 01 00:00:00
FILE "08 - Marche des vignerons.ape" WAVE
TRACK 08 AUDIO
TITLE "Marche des vignerons"
INDEX 01 00:00:00
FILE "09 - Pas seul.ape" WAVE
TRACK 09 AUDIO
TITLE "Pas seul"
INDEX 01 00:00:00
FILE "10 - Pas de deux jeunes paysans Polacca.ape" WAVE
TRACK 10 AUDIO
TITLE "Pas de deux jeunes paysans Polacca"
INDEX 01 00:00:00
FILE "11 - Andante.ape" WAVE
TRACK 11 AUDIO
TITLE "Andante"
INDEX 01 00:00:00
FILE "12 - Pesante.ape" WAVE
TRACK 12 AUDIO
TITLE "Pesante"
INDEX 01 00:00:00
FILE "13 - Allegretto.ape" WAVE
TRACK 13 AUDIO
TITLE "Allegretto"
INDEX 01 00:00:00
FILE "14 - Allegretto pesante.ape" WAVE
TRACK 14 AUDIO
TITLE "Allegretto pesante"
INDEX 01 00:00:00
FILE "15 - Valse.ape" WAVE
TRACK 15 AUDIO
TITLE "Valse"
INDEX 01 00:00:00
FILE "16 - Pas des vendanges Andante.ape" WAVE
TRACK 16 AUDIO
TITLE "Pas des vendanges Andante"
INDEX 01 00:00:00
FILE "17 - Moderato.ape" WAVE
TRACK 17 AUDIO
TITLE "Moderato"
INDEX 01 00:00:00
FILE "18 - Allegro moderato.ape" WAVE
TRACK 18 AUDIO
TITLE "Allegro moderato"
INDEX 01 00:00:00
FILE "19 - Allegro un peu loure.ape" WAVE
TRACK 19 AUDIO
TITLE "Allegro un peu loure"
INDEX 01 00:00:00
FILE "20 - Galop general.ape" WAVE
TRACK 20 AUDIO
TITLE "Galop general"
INDEX 01 00:00:00
FILE "21 - Finale de premier acte et scene de folie.ape" WAVE
TRACK 21 AUDIO
TITLE "Finale de premier acte et scene de folie"
INDEX 01 00:00:00

CD 2

PERFORMER "Orchestra of the Royal Opera House / Richard Bonynge"
SONGWRITER "Adam Adolphe"
TITLE "Giselle, ACT II"
FILE "01 - Introduction, halte des chausseurs et apparition des feux follets.ape" WAVE
TRACK 01 AUDIO
TITLE "Introduction, halte des chausseurs et apparition des feux follets"
INDEX 01 00:00:00
FILE "02 - Apparitions de Myrthe et evocation magique.ape" WAVE
TRACK 02 AUDIO
TITLE "Apparitions de Myrthe et evocation magique"
INDEX 01 00:00:00
FILE "03 - Pas des premieres Wilis.ape" WAVE
TRACK 03 AUDIO
TITLE "Pas des premieres Wilis"
INDEX 01 00:00:00
FILE "04 - Apparition de Giselle.ape" WAVE
TRACK 04 AUDIO
TITLE "Apparition de Giselle"
INDEX 01 00:00:00
FILE "05 - Entree des paysans.ape" WAVE
TRACK 05 AUDIO
TITLE "Entree des paysans"
INDEX 01 00:00:00
FILE "06 - Entree du Prince et apparition de Giselle.ape" WAVE
TRACK 06 AUDIO
TITLE "Entree du Prince et apparition de Giselle"
INDEX 01 00:00:00
FILE "07 - Entree d'Hilarion, scene et fugue des Wilis.ape" WAVE
TRACK 07 AUDIO
TITLE "Entree d'Hilarion, scene et fugue des Wilis"
INDEX 01 00:00:00
FILE "08 - Grand pas de deux Adage.ape" WAVE
TRACK 08 AUDIO
TITLE "Grand pas de deux Adage"
INDEX 01 00:00:00
FILE "09 - Grand pas de deux Andantino.ape" WAVE
TRACK 09 AUDIO
TITLE "Grand pas de deux Andantino"
INDEX 01 00:00:00
FILE "10 - Grand pas de deux Andante.ape" WAVE
TRACK 10 AUDIO
TITLE "Grand pas de deux Andante"
INDEX 01 00:00:00
FILE "11 - Grand pas de deux Valse (interpolated).ape" WAVE
TRACK 11 AUDIO
TITLE "Grand pas de deux Valse (interpolated)"
INDEX 01 00:00:00
FILE "12 - Finale.ape" WAVE
TRACK 12 AUDIO
TITLE "Finale"
INDEX 01 00:00:00
FILE "13 - Lever du soleil et arrivee de la cour.ape" WAVE
TRACK 13 AUDIO
TITLE "Lever du soleil et arrivee de la cour"
INDEX 01 00:00:00



专辑曲目

Act I
1. Introduction [2:24]
2. Les Vendangeurs [1:40]
3. Entrée du Prince [1:40]
4. Entrée de Giselle [7:11]
5. Retour des Vendangeurs - (bis) Valse [6:25]
6. La Chasse [8:27]
7. Scène d'Hilarion [1:20]
8. Marche des vignerons [1:41]
9. Pas seul [2:10]
10. Pas de deux des jeunes paysans - Pollaca [0:56]
11. Pas de deux des jeunes paysans - Andante [2:03]
12. Pas de deux des jeunes paysans - Pesante [0:48]
13. Pas de deux des jeunes paysans - Allegretto [0:37]
14. Pas de deux des jeunes paysans - Allegretto pesante [0:51]
15. Pas de deux des jeunes paysans - Valse [1:34]
16. Pas des vendanges: Andante [2:09]
17. Pas des vendanges: Moderato [1:39]
18. Pas des vendanges: Allegro moderato [1:35]
19. Pas des vendanges: Allegro un peu louré [3:18]
20. No. 8 Galop Général [2:45]
21. Finale du 1er Acte et Scène de folie [11:40]

CD 2:
Act II
1. Introduction (La halte des chasseurs) [7:13]
2. Apparition de Myrthe et évocation magique [6:43]
3. Pas des premières Wilis [7:11]
4. No.11 Apparition de Giselle [2:25]
5. Entrée des paysans [2:36]
6. Entrée du Prince [10:57]
7. Scène des Wilis (Entrée d'Hilarion) [5:37]
8. Grand pas de deux: Adage [6:29]
9. Grand pas de deux: Andantino [0:51]
10. Grand pas de deux: Andante [2:20]
11. Grand pas de deux: Valse (interpolated) [2:20]
12. Final [1:09]
13. Lever du soleil et arrivée de la cour [7:05]

正在读取……

这里是其它用户补充的资源(我也要补充):

暂无补充资源
正在加载,请稍等...

点击查看所有31网友评论

 

(?) [公告]留口水、评论相关规则 | [活动]每日签到 轻松领取电驴经验

    小贴士:
  1. 类似“顶”、“沙发”之类没有营养的文字,对勤劳贡献的楼主来说是令人沮丧的反馈信息。
  2. 提问之前请再仔细看一遍楼主的说明,或许是您遗漏了。
  3. 勿催片。请相信驴友们对分享是富有激情的,如果确有更新版本,您一定能搜索到。
  4. 请勿到处挖坑绊人、招贴广告。既占空间让人厌烦,又没人会搭理,于人于己都无利。
  5. 如果您发现自己的评论不见了,请参考以上4条。