v

您的位置:VeryCD动漫剧场动画

动漫资源事务区


《天才嘉年华II》(Genius Party Beyond)[H&C字幕组][更新MP4版][GB][DVDRip]

  • 状态: 精华资源
  • 摘要:
    发行时间2009年03月20日
    语言日语
  • 时间: 2009/05/13 04:13:34 发布 | 2009/06/08 17:36:43 更新
  • 分类: 动漫  剧场动画 

vivianna

精华资源: 20

全部资源: 20

相关: 分享到新浪微博   转播到腾讯微博   分享到开心网   分享到人人   分享到QQ空间   订阅本资源RSS更新   美味书签  subtitle
该内容尚未提供权利证明,无法提供下载。
中文名天才嘉年华II
英文名Genius Party Beyond
别名创世峰会,天才盛会
资源格式DVDRip
版本[H&C字幕组][更新MP4版][GB]
发行时间2009年03月20日
地区日本
语言日语
简介

IPB Image

【原名】Genius Party Beyond
【中文名】天才嘉年华II
【英文名】Genius Party Beyond
【字幕】简体内嵌
【格式】MP4(864×480)+RMVB(864×480)


【内容介绍】

http://i39.tinypic.com/54uag7.jpg

【STAFF】

http://i43.tinypic.com/2uhok1c.jpg

【CAST】

http://i41.tinypic.com/ngzodz.jpg
http://i42.tinypic.com/10ii2qr.jpg

【官方网站】
http://www.genius-party.jp/beyond/

‖‖‖BT、网盘下载点此‖‖‖

代码

      Format : MPEG-4
      Format profile : Base Media
      Codec ID : isom
      File size : 1.11 GiB
      Duration : 1h 21mn
      Overall bit rate : 1 950 Kbps
      Encoded date : UTC 2009-06-01 23:45:20
      Tagged date : UTC 2009-06-01 23:45:20
   Video #1
      Format : AVC
      Format/Info : Advanced Video Codec
      Format profile : High@L4.1
      Format settings, CABAC : Yes
      Format settings, ReFrames : 4 frames
      Codec ID : avc1
      Codec ID/Info : Advanced Video Coding
      Duration : 1h 21mn
      Bit rate mode : Variable
      Bit rate : 1 500 Kbps
      Maximum bit rate : 9 361 Kbps
      Width : 864 pixels
      Height : 480 pixels
      Display aspect ratio : 16/9
      Frame rate mode : Constant
      Frame rate : 23.976 fps
      Resolution : 24 bits
      Colorimetry : 4:2:0
      Scan type : Progressive
      Bits/(Pixel*Frame) : 0.151
      Stream size : 871 MiB (77%)
      Writing library : x264 core 67 r1162M f7bfcfa
      Encoding settings : cabac=1 / ref=4 / deblock=1:1:1 / analyse=0x3:0x113 / me=umh / subme=7 / psy_rd=0.6:0.0 / mixed_ref=1 / me_range=16 / chroma_me=1 / trellis=1 / 8x8dct=1 / cqm=0 / deadzone=21,11 / chroma_qp_offset=-2 / threads=3 / nr=0 / decimate=1 / mbaff=0 / bframes=3 / b_pyramid=0 / b_adapt=2 / b_bias=0 / direct=3 / wpredb=0 / keyint=250 / keyint_min=25 / scenecut=40 / rc=2pass / bitrate=1500 / ratetol=1.0 / qcomp=0.60 / qpmin=10 / qpmax=51 / qpstep=4 / cplxblur=20.0 / qblur=0.5 / vbv_maxrate=50000 / vbv_bufsize=50000 / ip_ratio=1.40 / pb_ratio=1.30 / aq=0
      Encoded date : UTC 2009-06-01 16:34:26
      Tagged date : UTC 2009-06-01 23:45:54
   Audio #2
      Format : AC-3
      Format/Info : Audio Coding 3
      Codec ID : ac-3
      Duration : 1h 21mn
      Bit rate mode : Constant
      Bit rate : 448 Kbps
      Channel(s) : 6 channels
      Channel positions : Front: L C R, Surround: L R, LFE
      Sampling rate : 48.0 KHz
      Resolution : 16 bits
      Stream size : 260 MiB (23%)
      Encoded date : UTC 2009-06-01 23:45:45
      Tagged date : UTC 2009-06-01 23:45:54

http://i39.tinypic.com/2r3urli.jpg
http://i43.tinypic.com/2mxepsi.jpg
http://i41.tinypic.com/2ib0zkz.jpg
http://i42.tinypic.com/357qe7m.jpg
http://i41.tinypic.com/2vb91n8.jpg
http://i40.tinypic.com/29nial4.jpg
http://i42.tinypic.com/znx10y.jpg
http://i44.tinypic.com/10oh6xc.jpg
http://i43.tinypic.com/w7bv69.jpg
http://i42.tinypic.com/2ugynnm.jpg
http://i40.tinypic.com/oig5k0.jpg
http://i40.tinypic.com/r9mnvq.jpg

正在读取……

这里是其它用户补充的资源(我也要补充):

暂无补充资源
正在加载,请稍等...

点击查看所有118网友评论

 

(?) [公告]留口水、评论相关规则 | [活动]每日签到 轻松领取电驴经验

    小贴士:
  1. 类似“顶”、“沙发”之类没有营养的文字,对勤劳贡献的楼主来说是令人沮丧的反馈信息。
  2. 提问之前请再仔细看一遍楼主的说明,或许是您遗漏了。
  3. 勿催片。请相信驴友们对分享是富有激情的,如果确有更新版本,您一定能搜索到。
  4. 请勿到处挖坑绊人、招贴广告。既占空间让人厌烦,又没人会搭理,于人于己都无利。
  5. 如果您发现自己的评论不见了,请参考以上4条。