v

您的位置:VeryCD音乐欧美音乐

音乐资源事务区


John Frusciante -《The Empyrean》[APE]

  • 状态: 精华资源
  • 摘要:
    音乐风格摇滚
    发行时间2009年01月20日
    地区美国
    语言英语
  • 时间: 2009/04/26 21:55:21 发布 | 2009/05/08 05:51:30 更新
  • 分类: 音乐  欧美音乐 

Kyle_cn

精华资源: 310

全部资源: 316

相关: 分享到新浪微博   转播到腾讯微博   分享到开心网   分享到人人   分享到QQ空间   订阅本资源RSS更新   美味书签  subtitle
该内容尚未提供权利证明,无法提供下载。
专辑英文名The Empyrean
音乐风格摇滚
资源格式APE
发行时间2009年01月20日
地区美国
语言英语
简介

IPB Image

专辑简介:

出生自美国纽约皇后 区的「呛辣红椒之约翰伏许安John Frusciante」,父亲是一位出色的钢琴家、母亲则是一位成功的声乐家,来自家庭潜移默化的熏陶,造就John Frusciante不凡的音乐才华。有着吉他手、歌手、作曲家、以及唱片制作人…等多种身份,而最众所皆知的就是,John Frusciante在摇滚指标呛辣红椒Red Hot Chili Peppers当 中,当任当家吉他手的角色。John Frusciante辨识度极高的演奏风格,很快地在摇滚乐界杀出一条血路,无论是重金属、迷幻曲调或是放克乐音,John Frusciante都展现出过人的璀璨魅力,也让他顺利地名列滚石杂志Rolling Stone「史上百大吉他手The 100 Greatest Guitarists of All Time」之林。John Frusciante十八岁就加入呛辣红椒合唱团,呛辣红椒在1989以专辑《Mother's Milk》获得空前成功,而与团体理念不和的John Frusciante,却在1992年时选择退出呛辣红椒,并在单飞之后于1994到1997期间推出两张专辑《Niandra Lades And Usually Just A T-Shirt》,及《Smile From The Streets You Hold》。John Frusciante的音乐之路并非一帆风顺,他曾因药物的问题而经历了一段低潮期,但走出暗黑幽谷的他,重回呛红辣椒,再度以专辑 《Californication》将乐团推向另一个事业高峰。

每隔几年就会推出个 人作品的John Frusciante,在2009年初带来个人第十张原创专辑《The Empyrean》,专辑里的十首歌,以章节编排的方式呈现,用音乐讲述着一个带着神话色彩的故事。这张耗时一年半的新作,特地请来呛辣红辣椒乐队贝斯手 好友Flea、摇滚新秀Josh Klinghoffer、以及著名吉他手The Smith乐队的Johnny Marr共同合作完成,专辑甫推出权威媒体The Observer立刻献上四星高评(4/5)、专业吉他杂志Ultimate Guitar也以九星高评(9/10)来致敬。吉他音色作足了表情,〈Before The Beginning〉调节情绪频率,协调好沟通模式;John Frusciante声线变的悠扬飘渺,〈Song To The Siren〉是一首翻唱经典歌手Tim Buckley在1970发行的专辑《Starsailor》中的歌曲;吉他音墙和电子键盘,堆砌出的一层层的阶梯,带领你我步步走向九重之天,John Frusciante建构出来宽广激昂的乐章国度;光与影巧妙的安排,晦暗与希望的交战,〈Dark/Light〉用音乐拉出鲜明的对比;切开躯壳让恐惧 流泄,琴音环抱着信念,〈Central〉是一首绽放坚定力量的生命讴歌;〈One More Of Me〉弦乐飘扬,就在怀旧气息围绕音符之间,〈After The Ending〉轻唤出终语。

对于John Frusciante来说,吉他早已是身体的ㄧ部分、灵魂语言的翻译官,而《The Empyrean》是一张可以笼罩全身贯穿情绪的专辑!夜晚降临时,独自回到黑暗密闭的空间里吧,按下播放键将音响调大,顿时,你就会明白为何John Frusciant会将专辑定名为《The Empyrean》!

◎ 摇滚指标呛辣红椒合唱团,当家吉他手个人第十张原创专辑
◎ 名列滚石杂志Rolling Stone:「史上百大吉他手The 100 Greatest Guitarists of All Time」
◎ 权威媒体The Observer四星高评(4/5)、专业吉他杂志Ultimate Guitar九星高评(9/10)
◎ 呛辣红椒之Flea、音乐才子Josh Klinghoffer、前Smiths乐团吉他手Johnny Marr,话题力挺
◎ 翻唱经典歌手Tim Buckley于1970专辑《Starsailor》中的歌曲〈Song To The Siren〉
◎ 对于John Frusciante来说,吉他早已是身体的一部分、灵魂语言的翻译官

榜单:

荷兰专辑榜专辑榜#61
瑞士专辑榜专辑榜#57
美国公告牌200专辑榜#151
美国告示牌热门潜力榜#7

专辑作品:

1994 - Niandra Lades And Usually Just A T-Shirt
1997 - Smile From The Streets You Hold
2001 - To Record Only Water For Ten Days
2001 - From The Sounds Inside
2004 - Shadows Collide With People
2004 - The Will To Death
2004 - Inside Of Emptiness
2004 - A Sphere In The Heart Of Silence
2005 - Curtains
2009 - The Empyrean

IPB Image

IPB Image

IPB Image

IPB Image

CD:

引用
John Frusciante is an amazing artist, a unique song-writer, and a remarkable guitarist (so expectations were high when I purchased this album). Initially, after listening to this album once (from track 1 to track 10), my thought was, "Great, John's gone soft. Where's the hard rock? Why do rock 'n' rollers go soft?" After I finished listening to the album, I was disappointed because I was expecting something heavier. (And by the way, this album isn't all soft; there are several moments of hard rockin'.)

Disappointment fades. I listened again...and again, a third time (from track 1 to track 10). Music has a tendency to grow on you when you take the time to appreciate it. Then, after several listens, I grabbed my dictionary and looked up the word, "empyrean." The "empyrean" refers to the highest heaven, or the Celestial Kingdom. Knowing this, I better understood the content and the overall feel of this album.

This piece of music, as John might say, is a representation of the empyrean, the highest heaven. Therefore, this music is meant to sound heavenly (not heavy or rock 'n' rolly). I was expecting a rock `n' roll experience, but John delivered a heavenly experience.

John: thank you for taking us to the empyrean with your guitar; thank you for taking us to a place where rock music almost never dares to ascend.

The Empyrean rocks...in a soft, heavenly sort of way. Buy this album and enjoy!


制作信息:

代码
    Exact Audio Copy V0.99 prebeta 4 from 23. January 2008

    EAC extraction logfile from 25. March 2009, 14:47

    John Frusciante / The Empyrean

    Used drive  : Optiarc DVD RW AD-7170A   Adapter: 3  ID: 0

    Read mode               : Secure
    Utilize accurate stream : Yes
    Defeat audio cache      : Yes
    Make use of C2 pointers : No

    Read offset correction                      : 48
    Overread into Lead-In and Lead-Out          : No
    Fill up missing offset samples with silence : Yes
    Delete leading and trailing silent blocks   : No
    Null samples used in CRC calculations       : Yes
    Used interface                              : Native Win32 interface for Win NT & 2000

    Used output format : Internal WAV Routines
    Sample format      : 44.100 Hz; 16 Bit; Stereo


    TOC of the extracted CD

         Track |   Start  |  Length  | Start sector | End sector
        ---------------------------------------------------------
            1  |  0:00.00 |  9:09.31 |         0    |    41205  
            2  |  9:09.31 |  3:33.54 |     41206    |    57234  
            3  | 12:43.10 |  6:10.28 |     57235    |    85012  
            4  | 18:53.38 |  3:23.56 |     85013    |   100293  
            5  | 22:17.19 |  8:30.57 |    100294    |   138600  
            6  | 30:48.01 |  4:03.17 |    138601    |   156842  
            7  | 34:51.18 |  4:14.72 |    156843    |   175964  
            8  | 39:06.15 |  7:16.18 |    175965    |   208682  
            9  | 46:22.33 |  4:06.08 |    208683    |   227140  
           10  | 50:28.41 |  3:38.06 |    227141    |   243496  


    Range status and errors

    Selected range

         Filename C:\Documents and Settings\Мои документы\John Frusciante.-.The.Empyrean.by.rat.eac.ape.Israel-club.my1.ru\John Frusciante - The Empyrean.wav

         Peak level 100.0 %
         Range quality 99.8 %
         Copy CRC A24B6B16
         Copy OK

    No errors occurred

    End of status report


转载资源声明:

本资源来自网络搜索,本人亲自供源,长期有效。感谢原创者的无私分享!压缩包内含APE,CUE,LOG文件,1900×940CD封面及该资源原发论坛广告信息(已测试无病毒,可无视或直接删除),详见4楼贴图。



专辑曲目

01. Before The Beginning [0:09:09.31]
02. Song To The Siren [0:03:33.54]
03. Unreachable [0:06:10.28]
04. God [0:03:23.56]
05. Dark/Light [0:08:30.57]
06. Heaven [0:04:03.17]
07. Enough Of Me [0:04:14.72]
08. Central [0:07:16.18]
09. One More Of Me [0:04:06.08]
10. After The Ending [0:03:38.06]

正在读取……

这里是其它用户补充的资源(我也要补充):

暂无补充资源
正在加载,请稍等...

点击查看所有14网友评论

 

(?) [公告]留口水、评论相关规则 | [活动]每日签到 轻松领取电驴经验

    小贴士:
  1. 类似“顶”、“沙发”之类没有营养的文字,对勤劳贡献的楼主来说是令人沮丧的反馈信息。
  2. 提问之前请再仔细看一遍楼主的说明,或许是您遗漏了。
  3. 勿催片。请相信驴友们对分享是富有激情的,如果确有更新版本,您一定能搜索到。
  4. 请勿到处挖坑绊人、招贴广告。既占空间让人厌烦,又没人会搭理,于人于己都无利。
  5. 如果您发现自己的评论不见了,请参考以上4条。