v

您的位置:VeryCD音乐演唱会

音乐资源事务区


Lacuna Coil -《Live At Wacken Open Air》[DVDRip]

  • 状态: 精华资源
  • 摘要:
    发行时间2007年
    语言英语
  • 时间: 2009/04/22 12:08:40 发布 | 2009/04/22 19:33:03 更新
  • 分类: 音乐  演唱会 

Katherine丶D

精华资源: 23

全部资源: 23

相关: 分享到新浪微博   转播到腾讯微博   分享到开心网   分享到人人   分享到QQ空间   订阅本资源RSS更新   美味书签  subtitle
该内容尚未提供权利证明,无法提供下载。
专辑中文名Live At Wacken Open Air
歌手Lacuna Coil
资源格式DVDRip
发行时间2007年
地区意大利
语言英语
简介

IPB Image

内容介绍:

♬ : Lacuna Coil这支拥有美女主唱的歌特金属乐队在意大利的Milan成立,在典型的金属旋律里,主唱们的音色产生了一种微妙而奇特的变化,创造了男女声色之间的完美和谐。1996年在乐队还没有用Lacuna Coil作为乐队名,而是叫做Ethereal的时候,他们将创作的两首demo小样寄给了一些欧洲的唱片公司,最终乐队选择与Century Media签约合作,并更名为Lacuna Coil。

♬ : Wacken Open Air (W:O:A) is one of the many leading summer open air Heavy Metal music festivals. It takes place annually in the small town of Wacken in Schleswig-Holstein, northern Germany. With 70,000 festival visitors, and including personnel a total of over 72,000 attendees in 2007,[2] it attracts all kinds of metal music fans, such as fans of black metal, death metal, power metal, thrash metal, gothic metal and folk metal, from around the world.

The festival was first held in 1990 as a small event for local German bands. By 1998 the event had become the major festival on the European metal calendar and has included over 70 bands from all over Europe, North America and Australia. W:O:A is usually held at the beginning of August and lasts three days, during which the festival-goers camp on several large camping grounds surrounding the actual festival area. The 70 or more bands perform across four separate stages over the course of the event.

The 2009 edition set a sales record; it sold out on December 30 2008. All 70,000 tickets were sold over 200 days before the opening of the festival.

♬ : 温馨提示:

DVD9不是1080P,,DVD5不是720P,,DVD9不比DVD5清晰(D9只是比D5多内容),,DVDRip清晰度与DVD差不多,,如要更详细解释请自行搜索.
我没看见过多少乐队出过蓝光的碟,居我所知《Within Temptation - Black Symphony 2008》出过蓝光版本!所以,要求高清的同志们请自重!!!

♬ : 质量说明:

MKV.H264. DTS5.1 OGG2.0 DVDRIP

代码

File size : 1.36 GiB
    Duration : 50mn 37s
    Overall bit rate : 3 860 Kbps
    Encoded date : UTC 2008-11-13 19:37:14
    Writing application : mkvmerge v2.2.0 ('Turn It On Again') built on Mar  4 2008 12:58:26
    Writing library : libebml v0.7.7 + libmatroska v0.8.1
  Video #1
    ID : 1
    Format : AVC
    Format/Info : Advanced Video Codec
    Format profile : High@L4.1
    Format settings, CABAC : Yes
    Format settings, ReFrames : 8 frames
    Muxing mode : Container profile=Unknown@4.1
    Codec ID : V_MPEG4/ISO/AVC
    Duration : 50mn 34s
    Bit rate : 2 136 Kbps
    Nominal bit rate : 2 240 Kbps
    Width : 704 pixels
    Height : 480 pixels
    Display aspect ratio : 16/9
    Frame rate : 29.970 fps
    Resolution : 24 bits
    Colorimetry : 4:2:0
    Scan type : Progressive
    Bits/(Pixel*Frame) : 0.211
    Stream size : 772 MiB (55%)
    Title : Lacuna Coil - Visual Karma
    Writing library : x264 core 65 r1024M 2652abe
    Encoding settings : cabac=1 / ref=8 / deblock=1:0:0 / analyse=0x3:0x113 / me=umh / subme=7 / psy_rd=1.0:0.0 / mixed_ref=1 / me_range=24 / chroma_me=1 / trellis=2 / 8x8dct=1 / cqm=0 / deadzone=21,11 / chroma_qp_offset=-2 / threads=2 / nr=0 / decimate=0 / mbaff=0 / bframes=8 / b_pyramid=1 / b_adapt=2 / b_bias=4 / direct=1 / wpredb=1 / keyint=250 / keyint_min=25 / scenecut=40(pre) / rc=2pass / bitrate=2240 / ratetol=1.0 / qcomp=0.60 / qpmin=10 / qpmax=51 / qpstep=4 / cplxblur=20.0 / qblur=0.5 / ip_ratio=1.40 / pb_ratio=1.30 / aq=1:1.00
    Language : English
  Audio #2
    ID : 2
    Format : DTS
    Format/Info : Digital Theater Systems
    Codec ID : A_DTS
    Duration : 50mn 37s
    Bit rate mode : Constant
    Bit rate : 1 536 Kbps
    Channel(s) : 6 channels
    Channel positions : Front: L C R, Surround: L R, LFE
    Sampling rate : 48.0 KHz
    Resolution : 16 bits
    Stream size : 556 MiB (40%)
    Title : Live @ Wacken 2007 (Germany) - DTS 5.1
    Language : English
  Audio #3
    ID : 3
    Format : Vorbis
    Format settings, Floor : 1
    Codec ID : A_VORBIS
    Duration : 50mn 37s
    Bit rate mode : Constant
    Bit rate : 112 Kbps
    Channel(s) : 2 channels
    Sampling rate : 48.0 KHz
    Stream size : 40.5 MiB (3%)
    Title : Live @ Wacken 2007 (Germany) - Ogg 2.0
    Writing library : aoTuV Beta 5 (UTC 2006-10-24)
    Language : English



专辑曲目

01. To The Edge
02. Fragments of Faith
03. Swamped
04. In Visible Light
05. Fragile
06. Closer
07. Senzafine
08. What I See
09. Enjoy The Silence
10. Heaven's A Lie
11. Our Truth

正在读取……

这里是其它用户补充的资源(我也要补充):

Katherine丶D 2009/04/22 12:13:40 补充
有兴趣有耐心的朋友可以下载这个!如果你发现有4,5个国人在一起下你可以坚持!

该内容尚未提供权利证明,无法提供下载。
正在加载,请稍等...

点击查看所有19网友评论

 

(?) [公告]留口水、评论相关规则 | [活动]每日签到 轻松领取电驴经验

    小贴士:
  1. 类似“顶”、“沙发”之类没有营养的文字,对勤劳贡献的楼主来说是令人沮丧的反馈信息。
  2. 提问之前请再仔细看一遍楼主的说明,或许是您遗漏了。
  3. 勿催片。请相信驴友们对分享是富有激情的,如果确有更新版本,您一定能搜索到。
  4. 请勿到处挖坑绊人、招贴广告。既占空间让人厌烦,又没人会搭理,于人于己都无利。
  5. 如果您发现自己的评论不见了,请参考以上4条。