v

您的位置:VeryCD动漫电视动画

动漫资源事务区


《神幻拍档》(07-GHOST)[09年4月主力新番][更新06][卡萌字幕组][高质量MP4+PSP用MP4+MKV][HDTV]

  • 状态: 精华资源
  • 摘要:
    发行时间2009年04月
    语言日语
  • 时间: 2009/04/18 23:54:24 发布 | 2009/05/24 22:17:25 更新
  • 分类: 动漫  电视动画 

卡萌动漫

精华资源: 12

全部资源: 12

相关: 分享到新浪微博   转播到腾讯微博   分享到开心网   分享到人人   分享到QQ空间   订阅本资源RSS更新   美味书签  subtitle
该内容尚未提供权利证明,无法提供下载。
中文名神幻拍档
英文名07-GHOST
别名七鬼神
资源格式HDTV
版本[09年4月主力新番][更新06][卡萌字幕组][高质量MP4+PSP用MP4+MKV]
发行时间2009年04月
地区日本
语言日语
简介

IPB Image

【中文名】神幻拍档 [又名:七鬼神]
【英文名】07-GHOST
【字幕】卡萌字幕组
【格式】1024x576 MP4+720P MKV+PSP专用MP4

【故事简介】
身世坎坷的泰德是帝国陆军士官学校的优秀学生,某天他得知自己的父亲惨遭帝国军杀害!! 在逃亡的过程中,他遇上了一群另类的主教!?
泰德能否成功躲过帝国军的迫害呢?而他的真实身分究竟是什么!?
米卡杰却被人操纵灵魂,因而丧命!!痛失挚友的泰德决定接受主教试验,让自己更有力量对抗帝国军,但就在准备试验的同时,他认识了一个互看不顺眼的考生,而且他们还是室友!?


【STAFF】
监督:高本宣弘
系列构成:高桥ナツコ
人物设定:藤井まき
总作画监督:番由纪子
机械设定:宫豊
美术监督:栫ヒロツグ
色彩设计:北爪英子
摄影监督:近藤慎与
音响监督:高桑一
音乐:中川幸太郎
动画制作:Studio DEEN


【CAST】
泰德·克莱恩:斎贺みつき
弗拉乌:诹访部顺一
卡斯托鲁:千叶进歩
拉布拉多:宫田幸季
阿亚纳米:速水 奨
休加:浜田贤二
黑百合:斎藤千和
柯纳兹:岸尾だいすけ
哈鲁赛:羽多野渉
葛城:中井和哉
修利:入野自由
米卡格:浪川大辅
巴斯廷:桐井大介
神父:木内秀信
米洛克:千田光男
国王:高桥広树


【人物介绍】
泰德·克莱恩
http://www.moecomic.cn/bbs/attachments/forumid_47/20090418_b76ca16ca496f03f0347sbGxyEoXtbH9.png
主角。已灭亡的拉古斯王国王子。
但却失去过去的记忆,由士官学院的理事长一手养大。右手拥有破坏和守护世界力量的弥卡艾尔之眼。


米卡杰
http://www.moecomic.cn/bbs/attachments/forumid_47/20090418_05b95794dc4ace80bfe7CYTiveMm0Ob6.png
泰德的挚友,实为所谓的“竹马”,死后转世成为黏着泰德的小龙。

弗拉乌
http://www.moecomic.cn/bbs/attachments/forumid_47/20090418_3443dc2ee81821e64229ZLcfINd0T8Ys.png

斩魂,死神之名为赛海尔,能够使用传说中的费亚罗廉的镰刀。
由于超出常轨主教实际技术考试的最高记录保持者。
可是平素的言行和态度却不像个主教,随身携带色情刊物,表面不良,但行动认真。


卡斯托鲁
http://www.moecomic.cn/bbs/attachments/forumid_47/20090418_4c50e63bc42f343efcffiNFBBI7QNOZu.png
系魂,被弗拉乌称为[人肉发烧友]、[人偶宅],实力顶尖的冷静眼镜男。

拉普拉多鲁
http://www.moecomic.cn/bbs/attachments/forumid_47/20090418_0684f9752bd6ee62c4f7XYqNtyPN2Que.png
言魂。
能够操纵花草的温柔派,沉默寡言的青年。
具有预知未来的能力,大体上正确。


阿亚纳米
http://www.moecomic.cn/bbs/attachments/forumid_47/20090418_96abda704971754f6bda8kCG2BE56MMV.png
帝国军参谋长,追着泰德。
有着操纵人的能力,实力不可获知。
目的手段冷酷无情的冷酷人物。
不过部下门对其很信赖,他也信赖着他的部下门。
是泰德立誓要报仇的对象,怀疑其真身为恶之死神费亚罗廉。


休加
http://www.moecomic.cn/bbs/attachments/forumid_47/20090418_02a24b7e96bede5e0eafV6HUdXIph3x5.png
阿亚纳米的部下,少佐。
无论什么时候都很阳光的男性。
称阿亚纳米为[阿亚酱],常因此被阿亚纳米予以制裁。
工作态度不认真。戴着黑色方框太阳眼镜。


柯纳兹
http://www.moecomic.cn/bbs/attachments/forumid_47/20090418_0e8a561ea73d72b5c677O5Dm5vPmLgd5.png
休加的干部助理,与上司相反,十分认真,是味觉白痴。

黑百合
http://www.moecomic.cn/bbs/attachments/forumid_47/20090418_7a321de3b0a2c16f12fbSbnv6S1itwJL.png
阿亚纳米的部下,中佐。
有着年幼的外表但实力高超,深深地爱慕着阿亚纳米。
虽然有着女性外表,但性别不明。


【文件信息】

代码

[神幻拍档].[MOE][07-GHOST][01][1024x576][x264_AAC][GB].mp4
   General
      Complete name : [神幻拍档].[MOE][07-GHOST][01][1024x576][x264_AAC][GB].mp4
      Format : MPEG-4
      Format profile : Base Media
      Codec ID : isom
      File size : 159 MiB
      Duration : 23mn 50s
      Overall bit rate : 932 Kbps
      Encoded date : UTC 2009-04-16 16:49:02
      Tagged date : UTC 2009-04-16 16:49:02
   Video #1
      Format : AVC
      Format/Info : Advanced Video Codec
      Format profile : Main@L3.1
      Format settings, CABAC : Yes
      Format settings, ReFrames : 2 frames
      Codec ID : avc1
      Codec ID/Info : Advanced Video Coding
      Duration : 23mn 50s
      Bit rate mode : Variable
      Bit rate : 800 Kbps
      Maximum bit rate : 2 802 Kbps
      Width : 1 024 pixels
      Height : 576 pixels
      Display aspect ratio : 16/9
      Frame rate mode : Constant
      Frame rate : 29.970 fps
      Resolution : 24 bits
      Colorimetry : 4:2:0
      Scan type : Progressive
      Bits/(Pixel*Frame) : 0.045
      Stream size : 136 MiB (86%)
      Writing library : x264 core 65 r1074M b6bb3d4
      Encoding settings : cabac=1 / ref=2 / deblock=1:0:0 / analyse=0x1:0x111 / me=umh / subme=6 / psy_rd=1.0:0.0 / mixed_ref=1 / me_range=16 / chroma_me=1 / trellis=1 / 8x8dct=0 / cqm=0 / deadzone=21,11 / chroma_qp_offset=-2 / threads=3 / nr=0 / decimate=1 / mbaff=0 / bframes=2 / b_pyramid=0 / b_adapt=1 / b_bias=0 / direct=3 / wpredb=1 / keyint=250 / keyint_min=25 / scenecut=40(pre) / rc=2pass / bitrate=800 / ratetol=1.0 / qcomp=0.60 / qpmin=10 / qpmax=51 / qpstep=4 / cplxblur=20.0 / qblur=0.5 / ip_ratio=1.40 / pb_ratio=1.30 / aq=1:1.00 / cabac=1 / ref=2 / deblock=1:0:0 / analyse=0x1:0x111 / me=umh / subme=6 / psy_rd=1.0:0.0 / mixed_ref=1 / me_range=16 / chroma_me=1 / trellis=1 / 8x8dct=0 / cqm=0 / deadzone=21,11 / chroma_qp_offset=-2 / threads=3 / nr=0 / decimate=1 / mbaff=0 / bframes=2 / b_pyramid=0 / b_adapt=1 / b_bias=0 / direct=3 / wpredb=1 / keyint=250 / keyint_min=25 / scenecut=40(pre) / rc=2pass / bitrate=800 / ratetol=1.0 / qcomp=0.60 / qpmin=10 / qpmax=51 / qpstep=4 / cplxblur=20.0 / qblur=0.5 / ip_ratio=1.40 / pb_ratio=1.30 / aq=1:1.00
      Encoded date : UTC 2009-04-16 16:49:02
      Tagged date : UTC 2009-04-16 16:49:08
   Audio #2
      Format : AAC
      Format/Info : Advanced Audio Codec
      Format version : Version 4
      Format profile : LC
      Format settings, SBR : No
      Codec ID : 40
      Duration : 23mn 50s
      Bit rate mode : Variable
      Bit rate : 129 Kbps
      Maximum bit rate : 181 Kbps
      Channel(s) : 2 channels
      Channel positions : L R
      Sampling rate : 48.0 KHz
      Resolution : 16 bits
      Stream size : 21.9 MiB (14%)
      Encoded date : UTC 2009-04-16 16:49:07
      Tagged date : UTC 2009-04-16 16:49:08


引用

招贤纳士:
如果你喜爱本片..
并支持卡萌字幕组.
有没有考虑过加入我们呢?
只要你具备:时间+责任心+团队精神
并且有恒心想去完成一部作品的话.
我们将会恭候你的加入~~
我们长期需要:片源 翻译 时间 特效 后期 修图 嵌字等组员~
加入方式:点击下面的图片
http://blog.moecomic.cn/moesub_10.jpg

正在读取……

这里是其它用户补充的资源(我也要补充):

暂无补充资源
正在加载,请稍等...

点击查看所有52网友评论

 

(?) [公告]留口水、评论相关规则 | [活动]每日签到 轻松领取电驴经验

    小贴士:
  1. 类似“顶”、“沙发”之类没有营养的文字,对勤劳贡献的楼主来说是令人沮丧的反馈信息。
  2. 提问之前请再仔细看一遍楼主的说明,或许是您遗漏了。
  3. 勿催片。请相信驴友们对分享是富有激情的,如果确有更新版本,您一定能搜索到。
  4. 请勿到处挖坑绊人、招贴广告。既占空间让人厌烦,又没人会搭理,于人于己都无利。
  5. 如果您发现自己的评论不见了,请参考以上4条。