v

您的位置:VeryCD音乐欧美音乐

音乐资源事务区


Lisa Ekdahl & Peter Nordahl Trio -《When Did You Leave Heaven》[FLAC]

  • 状态: 精华资源
  • 摘要:
    音乐风格爵士
    发行时间1997年
    地区瑞典
    语言英语
  • 时间: 2009/04/08 22:03:07 发布 | 2009/04/08 22:07:03 更新
  • 分类: 音乐  欧美音乐 

jickbin

精华资源: 1486

全部资源: 1487

相关: 分享到新浪微博   转播到腾讯微博   分享到开心网   分享到人人   分享到QQ空间   订阅本资源RSS更新   美味书签  subtitle
该内容尚未提供权利证明,无法提供下载。
专辑英文名When Did You Leave Heaven
音乐风格爵士
资源格式FLAC
发行时间1997年
地区瑞典
语言英语
简介

IPB Image

专辑介绍:

瑞典天后 --- 丽莎爱克妲的首张同名专辑在瑞典狂销四白金,被誉为继ABBA、ACE OF BACE、羊毛衫合唱团及Jennifer Brown之后,瑞典的首席艺人。丽莎的外貌妩媚动人,歌声却有如雏燕般稚气,令人闻之倍感怜惜。《何时离开天堂》是丽莎的第一张专辑,与萝拉费琪相较亦不徨多让。

搭配合作的彼德诺达(Peter Nordahl)三重奏是瑞典着名的爵士乐团,与丽莎自1990年即开始合作演出,默契绝佳。专辑中收录了Cole Porter、Gershwin等名家代表作品;而丽莎三重奏的感性演出,已然跳脱了爵士乐的框架,也令人联想起Billie Holiday与Oscar Peterson Trio的历史性组合。录音由大师Janne Hansson操刀,定位清晰且动态慑人。夜半寂静无人时,打开音响聆听一曲"When Did You Leave Heaven",让红酒与妖姬Lisa带您进入甜美梦乡,人生至此夫复何求。
---- 文字介绍出自网络。

资源来自:

引用
Exact Audio Copy V0.99 prebeta 3 from 28. July 2007

EAC extraction logfile from 19. May 2008, 19:51

Lisa Ekdahl & Peter Nordahl Trio / When Did You Leave Heaven

Used drive : PLEXTOR DVDR PX-712A Adapter: 1 ID: 1

Read mode : Secure
Utilize accurate stream : Yes
Defeat audio cache : Yes
Make use of C2 pointers : Yes

Read offset correction : 30
Overread into Lead-In and Lead-Out : No
Fill up missing offset samples with silence : Yes
Delete leading and trailing silent blocks : No
Null samples used in CRC calculations : No
Used interface : Native Win32 interface for Win NT & 2000
Gap handling : Not detected, thus appended to previous track

Used output format : User Defined Encoder
Selected bitrate : 768 kBit/s
Quality : High
Add ID3 tag : No
Command line compressor : G:\Program Files\Exact Audio Copy\FLAC\FLAC.EXE
Additional command line options : -6 -V -T "ARTIST=%a" -T "TITLE=%t" -T "ALBUM=%g" -T "DATE=%y" -T "TRACKNUMBER=%n" -T "GENRE=%m" -T "COMMENT=%e" %s -o %d


TOC of the extracted CD

Track | Start | Length | Start sector | End sector
---------------------------------------------------------
1 | 0:00.32 | 6:02.38 | 32 | 27219
2 | 6:02.70 | 3:24.07 | 27220 | 42526
3 | 9:27.02 | 5:06.43 | 42527 | 65519
4 | 14:33.45 | 4:19.40 | 65520 | 84984
5 | 18:53.10 | 3:19.05 | 84985 | 99914
6 | 22:12.15 | 2:28.40 | 99915 | 111054
7 | 24:40.55 | 3:19.42 | 111055 | 126021
8 | 28:00.22 | 2:50.00 | 126022 | 138771
9 | 30:50.22 | 3:56.20 | 138772 | 156491
10 | 34:46.42 | 3:00.43 | 156492 | 170034
11 | 37:47.10 | 2:55.15 | 170035 | 183174
12 | 40:42.25 | 5:16.70 | 183175 | 206944
13 | 45:59.20 | 2:38.12 | 206945 | 218806


Track 1

Filename D:\jazz\Lisa Ekdahl\(1997) When Did You Leave Heaven\01. Lisa Ekdahl & Peter Nordahl Trio - When Did You Leave Heaven.wav

Peak level 98.3 %
Track quality 100.0 %
Copy CRC 9F83B05B
Accurately ripped (confidence 7) [1148914C]
Copy OK

Track 2

Filename D:\jazz\Lisa Ekdahl\(1997) When Did You Leave Heaven\02. Lisa Ekdahl & Peter Nordahl Trio - But Not For Me.wav

Peak level 98.2 %
Track quality 100.0 %
Copy CRC 855538D3
Accurately ripped (confidence 7) [6FE76DE3]
Copy OK

Track 3

Filename D:\jazz\Lisa Ekdahl\(1997) When Did You Leave Heaven\03. Lisa Ekdahl & Peter Nordahl Trio - Cry Me A River.wav

Peak level 98.3 %
Track quality 100.0 %
Copy CRC 187A8791
Accurately ripped (confidence 7) [91A09CB1]
Copy OK

Track 4

Filename D:\jazz\Lisa Ekdahl\(1997) When Did You Leave Heaven\04. Lisa Ekdahl & Peter Nordahl Trio - Love For Sale.wav

Peak level 98.3 %
Track quality 100.0 %
Copy CRC B16F91FC
Accurately ripped (confidence 7) [B96B0470]
Copy OK

Track 5

Filename D:\jazz\Lisa Ekdahl\(1997) When Did You Leave Heaven\05. Lisa Ekdahl & Peter Nordahl Trio - Lush Life.wav

Peak level 98.3 %
Track quality 100.0 %
Copy CRC EFD8CCB8
Accurately ripped (confidence 7) [21ABB26D]
Copy OK

Track 6

Filename D:\jazz\Lisa Ekdahl\(1997) When Did You Leave Heaven\06. Lisa Ekdahl & Peter Nordahl Trio - You're Gonna See A Lot Of Me.wav

Peak level 98.3 %
Track quality 99.8 %
Copy CRC 0B3AC55E
Accurately ripped (confidence 7) [E11F63B3]
Copy OK

Track 7

Filename D:\jazz\Lisa Ekdahl\(1997) When Did You Leave Heaven\07. Lisa Ekdahl & Peter Nordahl Trio - It's Oh So Quiet.wav

Peak level 98.3 %
Track quality 100.0 %
Copy CRC 919A9D2E
Accurately ripped (confidence 7) [926E4AFB]
Copy OK

Track 8

Filename D:\jazz\Lisa Ekdahl\(1997) When Did You Leave Heaven\08. Lisa Ekdahl & Peter Nordahl Trio - It Was Just One Of Those Things.wav

Peak level 96.0 %
Track quality 100.0 %
Copy CRC DD4670C6
Accurately ripped (confidence 7) [DDE4AC84]
Copy OK

Track 9

Filename D:\jazz\Lisa Ekdahl\(1997) When Did You Leave Heaven\09. Lisa Ekdahl & Peter Nordahl Trio - The Boy Next Door.wav

Peak level 74.2 %
Track quality 100.0 %
Copy CRC 70418104
Accurately ripped (confidence 7) [C7655C0B]
Copy OK

Track 10

Filename D:\jazz\Lisa Ekdahl\(1997) When Did You Leave Heaven\10. Lisa Ekdahl & Peter Nordahl Trio - I'm A Fool To Want You.wav

Peak level 79.0 %
Track quality 100.0 %
Copy CRC E3B22715
Accurately ripped (confidence 7) [E800AF08]
Copy OK

Track 11

Filename D:\jazz\Lisa Ekdahl\(1997) When Did You Leave Heaven\11. Lisa Ekdahl & Peter Nordahl Trio - My Heart Belongs To Daddy.wav

Peak level 99.9 %
Track quality 100.0 %
Copy CRC C458A30C
Accurately ripped (confidence 7) [5E56F47A]
Copy OK

Track 12

Filename D:\jazz\Lisa Ekdahl\(1997) When Did You Leave Heaven\12. Lisa Ekdahl & Peter Nordahl Trio - Blame It On My Youth.wav

Peak level 94.1 %
Track quality 100.0 %
Copy CRC BED85D05
Accurately ripped (confidence 7) [7BBA3D10]
Copy OK

Track 13

Filename D:\jazz\Lisa Ekdahl\(1997) When Did You Leave Heaven\13. Lisa Ekdahl & Peter Nordahl Trio - It's Oh So Quiet.wav

Peak level 99.9 %
Track quality 100.0 %
Copy CRC D3601C02
Accurately ripped (confidence 7) [467E6D77]
Copy OK


All tracks accurately ripped

No errors occurred

End of status report



专辑曲目

01. When Did You Leave Heaven
02. But Not For Me
03. Cry Me A River
04. Love For Sale
05. Lush Life
06. Youre Gonna See A Lot Of Me
07. Its Oh So Quiet
08. It Was Just One Of Those Things
09. The Boy Next Door
10. Im A Fool To Want You
11. My Heart Belongs To Daddy
12. Blame It On My Youth
13. Its Oh So Quiet

正在读取……

这里是其它用户补充的资源(我也要补充):

暂无补充资源
正在加载,请稍等...

点击查看所有26网友评论

 

(?) [公告]留口水、评论相关规则 | [活动]每日签到 轻松领取电驴经验

    小贴士:
  1. 类似“顶”、“沙发”之类没有营养的文字,对勤劳贡献的楼主来说是令人沮丧的反馈信息。
  2. 提问之前请再仔细看一遍楼主的说明,或许是您遗漏了。
  3. 勿催片。请相信驴友们对分享是富有激情的,如果确有更新版本,您一定能搜索到。
  4. 请勿到处挖坑绊人、招贴广告。既占空间让人厌烦,又没人会搭理,于人于己都无利。
  5. 如果您发现自己的评论不见了,请参考以上4条。