v

您的位置:VeryCD动漫电视动画

动漫资源事务区


《钢之炼金术师 2009》(Fullmetal Alchemst)[09年4月主力新番][卡萌字幕组][更新15][高质量MP4+PSP用MP4+MKV][HDTV]

  • 状态: 精华资源
  • 摘要:
    发行时间2009年04月
    语言日语
  • 时间: 2009/04/07 13:39:43 发布 | 2009/07/15 22:52:33 更新
  • 分类: 动漫  电视动画 

卡萌动漫

精华资源: 12

全部资源: 12

相关: 分享到新浪微博   转播到腾讯微博   分享到开心网   分享到人人   分享到QQ空间   订阅本资源RSS更新   美味书签  subtitle
该内容尚未提供权利证明,无法提供下载。
中文名钢之炼金术师 2009
英文名Fullmetal Alchemst
别名钢の錬金术师 2009
资源格式HDTV
版本[09年4月主力新番][卡萌字幕组][更新15][高质量MP4+PSP用MP4+MKV]
发行时间2009年04月
地区日本
语言日语
简介

IPB Image

【片名】钢の錬金术师 2009
【中文名】钢之炼金术师 2009
【英文名】Fullmetal Alchemst
【字幕】卡萌字幕组
【格式】1024x576 MP4+720P MKV+PSP专用MP4

【故事简介】
天才炼金术师爱德华和弟弟阿尔冯斯因为过度思念去逝的母亲,使用禁忌的炼金术,想唤回已往生的故人,法术失败,他失去左脚,弟弟连身体都消失了!爱德华再度以右手为代价,将弟弟的灵魂固定在铠甲中。右臂和左腿用钢制义肢“机械铠”来替代的他,被人们称为“钢之炼金术师”

【STAFF】
原作:荒川弘
(掲载 月刊「少年ガンガン」スクウェア エニックス刊)
监督:入江泰浩
系列构成:大野木寛
角色设定:菅野宏纪
美术设计:金平和茂
美术监督:佐藤豪志
背景:草薙
色彩设计:中尾総子
炼成阵设计:荒牧伸志
音乐:千住明
音响监督:三间雅文
动画制作:ボンズ
制作:钢の錬金术师制作委员会


【CAST】
爱德华·艾尔利克:朴璐美
阿尔方斯·艾尔利克:钉宫理惠
温莉·洛克贝尔:高本めぐみ(丰口めぐみ)
罗伊·马斯坦:三木真一郎(大川透)
莉莎·赫可艾:折笠富美子(根谷美智子)
亚力士·路易·阿姆斯特朗:内海贤二
马斯·休斯:藤原启治
约翰·哈博克:うえだゆうじ(松本宝典)
瓦特·法尔曼:浜田贤二(室园丈裕)
玛利亚·罗斯:名冢佳织(斋贺みつき)
金·布拉德雷:柴田秀胜
斯卡:三宅健太(置鮎龙太郎)
拉丝特:井上喜久子(佐藤ゆうこ)
格拉特尼:白鸟哲(高户靖广)
恩维:高山みなみ(山口真弓)
撒夫·J·金佰利:吉野裕行(うえだゆうじ)


【人物介绍】
爱德华·艾尔利克
http://www.moemoe.cn/bbs/attachments/forumid_48/20081219_a777067d25cac9b16c04Glbt78kyq7lV.jpg
年龄:14
性别:男
身高:165CM(净身高+天线+厚底鞋)
性格:火暴,易冲动,但也有着的细心的一面
职业:国家炼金术师(12岁时考取)
称号:钢之炼金术师
能力:不用炼成阵就可以进行炼成,主要擅长肉搏战(与弟弟阿尔打架的战绩N战全败。)
最讨厌的食物:牛奶
最害怕的人:师傅
最讨厌的人:父亲
最讨厌的事:被人叫豆丁
特征:身材矮小+机械铠
目前目标:贤者之石 目前过失:炼成人造人一名(只?)
目前过失:为炼成自己的母亲而左腿,为固定弟弟的灵魂失去右臂。


阿尔方斯·艾尔利克
http://www.moemoe.cn/bbs/attachments/forumid_48/20081219_ad34c5db5dbe324bab33YgCsd5PtNbGf.jpg
年龄:13
性别:男
身高:232.5CM
能力:耐力跑+挡子弹+藏人………………
最讨厌的人:所有的坏人
最讨厌的事:哥哥不同意收养自己捡回去的流浪猫
最讨厌的食物:汗~这个,别勉强人家了……
最怕的人:师傅
特征:铠甲装
目前目标:贤者之石 目前过失:炼成人造人一名(只?)
目前过失:为炼成自己的母亲而失去整个身体


罗伊·马斯坦
http://www.moemoe.cn/bbs/attachments/forumid_48/20081219_809d94e3dd79e6df82d86nVUnCfZTZaZ.jpg
职位:准将(国家炼金术师)
称号:焰之炼金术师
年龄:29(其实是30岁)
性别:男
身高:191.42CM
能力:调节空气中的氧气浓度……………用来发出火焰炼金术
最讨厌的事:听修兹中佐……不,修兹准将占用军用电话聊家常
特征:爱纵火的包子脸+蘑菇头
兴趣:往上爬+抢别人女朋友+给部下发布不可能完成的任务
目前目标:当上大总统,然后让军队里所有的女性都穿上迷你裙
目前过失:在伊修巴而战中杀死了许多无辜的人,包括温莉的父母


莉莎·赫可艾
http://www.moemoe.cn/bbs/attachments/forumid_48/20081219_c82eec2541c7a8737b9ek65VLGMixFwy.jpg
职位:中佐
性别:女
身高:181
兴趣:开枪(指着人)+溜狗 +看“孩子”
特征:没事喜欢乱开枪滴严厉型大姐姐
能力:监督+保护大佐
目前目标:保护大佐
目前过失:因拉斯特的一句话而在战争中失去了战意(被大佐训)


马斯·休斯
http://www.moemoe.cn/bbs/attachments/forumid_48/20081219_3240c8eebd6d588da8deU6KkzBbd2OBD.jpg
职位:生前中佐,死后准将
性别:男
身高:195
特征:“看,这是我们家爱丽莎,今年3岁了,很可爱吧…………”
兴趣:谁边拖住一个人,然后拿着相片:“看,这是我们家爱丽莎,今年3岁了,很可爱吧…………”
最喜欢的人:女儿爱丽莎和老婆~
能力:收集情报+把大佐弄暴走
生前目标:把大佐推上大总统的位子
目前过失:丢下可爱的女儿贤惠的老婆脆弱的读者和孤单的大佐,就这么去了……


阿姆斯特朗
http://www.moemoe.cn/bbs/attachments/forumid_48/20081219_e73e8c7999e22bdf68f9saWOjkg3IVqW.jpg
职位:少佐(国家炼金术师)
称号:豪腕炼金术师
性别:男
身高:232.5
特征:肌肉男+“阿姆斯特朗家代代相传的……”+卡哇仪的粉红色小星星
能力:阿姆斯特朗家代代相传的:艺术炼金术+艺术肖像画+跟踪术……
兴趣:对认识的人抛媚眼
目前过失:知情不报N次


金·布拉德雷
http://www.moemoe.cn/bbs/attachments/forumid_48/20081219_f791efd8db2813af5746X0EX4sgR6ajt.jpg
职位:大总统 (其实是人造人)
性别:男
年龄:60
身高:191
最讨厌的人:不详
最讨厌的食物:不详
最讨厌的事:不详
目前目标:不详
最害怕的人:那个人(但丁)
特征:独眼的笑面虎
能力:耍剑+唬人
目前过失:杀死奇美拉一只(马特尔)


【文件信息】

代码

[b]1024x576 MP4[/b]

[钢之炼金术师2009].[MOE][FULLMETAL ALCHEMIST][01][1024x576][x264_AAC][GB].mp4
   General
      Complete name : [钢之炼金术师2009].[MOE][FULLMETAL ALCHEMIST][01][1024x576][x264_AAC][GB].mp4
      Format : MPEG-4
      Format profile : Base Media
      Codec ID : isom
      File size : 163 MiB
      Duration : 24mn 30s
      Overall bit rate : 933 Kbps
      Encoded date : UTC 2009-04-05 16:44:29
      Tagged date : UTC 2009-04-05 16:44:29
   Video #1
      Format : AVC
      Format/Info : Advanced Video Codec
      Format profile : Main@L3.1
      Format settings, CABAC : Yes
      Format settings, ReFrames : 2 frames
      Codec ID : avc1
      Codec ID/Info : Advanced Video Coding
      Duration : 24mn 30s
      Bit rate mode : Variable
      Bit rate : 800 Kbps
      Maximum bit rate : 3 454 Kbps
      Width : 1 024 pixels
      Height : 576 pixels
      Display aspect ratio : 16/9
      Frame rate mode : Constant
      Frame rate : 23.976 fps
      Resolution : 24 bits
      Colorimetry : 4:2:0
      Scan type : Progressive
      Bits/(Pixel*Frame) : 0.057
      Stream size : 140 MiB (86%)
      Writing library : x264 core 65 r1074M b6bb3d4
      Encoding settings : cabac=1 / ref=2 / deblock=1:0:0 / analyse=0x1:0x111 / me=umh / subme=6 / psy_rd=1.0:0.0 / mixed_ref=1 / me_range=16 / chroma_me=1 / trellis=1 / 8x8dct=0 / cqm=0 / deadzone=21,11 / chroma_qp_offset=-2 / threads=3 / nr=0 / decimate=1 / mbaff=0 / bframes=2 / b_pyramid=0 / b_adapt=1 / b_bias=0 / direct=3 / wpredb=1 / keyint=250 / keyint_min=25 / scenecut=40(pre) / rc=2pass / bitrate=800 / ratetol=1.0 / qcomp=0.60 / qpmin=10 / qpmax=51 / qpstep=4 / cplxblur=20.0 / qblur=0.5 / ip_ratio=1.40 / pb_ratio=1.30 / aq=1:1.00
      Encoded date : UTC 2009-04-05 16:44:29
      Tagged date : UTC 2009-04-05 16:44:35
   Audio #2
      Format : AAC
      Format/Info : Advanced Audio Codec
      Format version : Version 4
      Format profile : LC
      Format settings, SBR : No
      Codec ID : 40
      Duration : 24mn 30s
      Bit rate mode : Variable
      Bit rate : 129 Kbps
      Maximum bit rate : 179 Kbps
      Channel(s) : 2 channels
      Channel positions : L R
      Sampling rate : 48.0 KHz
      Resolution : 16 bits
      Stream size : 22.6 MiB (14%)
      Encoded date : UTC 2009-04-05 16:44:33
      Tagged date : UTC 2009-04-05 16:44:35

[b]PSP用MP4[/b]

[钢之炼金术师2009].[MOE][FULLMETAL ALCHEMIST][01][480x272][x264_AAC][HAVC].mp4
   General
      Complete name : [钢之炼金术师2009].[MOE][FULLMETAL ALCHEMIST][01][480x272][x264_AAC][HAVC].mp4
      Format : MPEG-4
      Format profile : Base Media
      Codec ID : isom
      File size : 122 MiB
      Duration : 24mn 30s
      Overall bit rate : 698 Kbps
      Encoded date : UTC 2009-04-05 17:24:15
      Tagged date : UTC 2009-04-05 17:24:15
   Video #1
      Format : AVC
      Format/Info : Advanced Video Codec
      Format profile : Main@L3.0
      Format settings, CABAC : Yes
      Format settings, ReFrames : 3 frames
      Codec ID : avc1
      Codec ID/Info : Advanced Video Coding
      Duration : 24mn 30s
      Bit rate mode : Variable
      Bit rate : 600 Kbps
      Maximum bit rate : 2 068 Kbps
      Width : 480 pixels
      Height : 272 pixels
      Display aspect ratio : 16/9
      Frame rate mode : Constant
      Frame rate : 23.976 fps
      Resolution : 24 bits
      Colorimetry : 4:2:0
      Scan type : Progressive
      Bits/(Pixel*Frame) : 0.192
      Stream size : 105 MiB (86%)
      Writing library : x264 core 65 r1074M b6bb3d4
      Encoding settings : cabac=1 / ref=3 / deblock=1:0:0 / analyse=0x1:0x111 / me=umh / subme=6 / psy_rd=1.0:0.0 / mixed_ref=1 / me_range=16 / chroma_me=1 / trellis=1 / 8x8dct=0 / cqm=0 / deadzone=21,11 / chroma_qp_offset=-2 / threads=3 / nr=0 / decimate=1 / mbaff=0 / bframes=2 / b_pyramid=0 / b_adapt=1 / b_bias=0 / direct=3 / wpredb=1 / keyint=250 / keyint_min=25 / scenecut=40(pre) / rc=2pass / bitrate=600 / ratetol=1.0 / qcomp=0.60 / qpmin=10 / qpmax=51 / qpstep=4 / cplxblur=20.0 / qblur=0.5 / vbv_maxrate=2000 / vbv_bufsize=250 / ip_ratio=1.40 / pb_ratio=1.30 / aq=1:1.00
      Encoded date : UTC 2009-04-05 17:24:15
      Tagged date : UTC 2009-04-05 17:24:19
   Audio #2
      Format : AAC
      Format/Info : Advanced Audio Codec
      Format version : Version 4
      Format profile : LC
      Format settings, SBR : No
      Codec ID : 40
      Duration : 24mn 30s
      Bit rate mode : Variable
      Bit rate : 96.0 Kbps
      Maximum bit rate : 168 Kbps
      Channel(s) : 2 channels
      Channel positions : L R
      Sampling rate : 48.0 KHz
      Resolution : 16 bits
      Stream size : 17.0 MiB (14%)
      Encoded date : UTC 2009-04-05 17:24:18
      Tagged date : UTC 2009-04-05 17:24:19


引用

招贤纳士:
如果你喜爱本片..
并支持卡萌字幕组.
有没有考虑过加入我们呢?
只要你具备:时间+责任心+团队精神
并且有恒心想去完成一部作品的话.
我们将会恭候你的加入~~
我们长期需要:片源 翻译 时间 特效 后期 修图 嵌字等组员~
加入方式:点击下面的图片
http://blog.moecomic.cn/moesub_10.jpg

正在读取……

这里是其它用户补充的资源(我也要补充):

暂无补充资源
正在加载,请稍等...

点击查看所有162网友评论

 

(?) [公告]留口水、评论相关规则 | [活动]每日签到 轻松领取电驴经验

    小贴士:
  1. 类似“顶”、“沙发”之类没有营养的文字,对勤劳贡献的楼主来说是令人沮丧的反馈信息。
  2. 提问之前请再仔细看一遍楼主的说明,或许是您遗漏了。
  3. 勿催片。请相信驴友们对分享是富有激情的,如果确有更新版本,您一定能搜索到。
  4. 请勿到处挖坑绊人、招贴广告。既占空间让人厌烦,又没人会搭理,于人于己都无利。
  5. 如果您发现自己的评论不见了,请参考以上4条。