v

您的位置:VeryCD动漫剧场动画

动漫资源事务区


《草莓乐园:圣诞快乐》(Strawberry Shortcake: Berry, Merry Christmas)[RAW][AVI][DVDRip]

  • 状态: 精华资源
  • 摘要:
    发行时间2003年
    语言英语
  • 时间: 2009/04/04 23:50:24 发布 | 2009/04/05 10:37:50 更新
  • 分类: 动漫  剧场动画 

喵喵驴驴

精华资源: 133

全部资源: 134

相关: 分享到新浪微博   转播到腾讯微博   分享到开心网   分享到人人   分享到QQ空间   订阅本资源RSS更新   美味书签  subtitle
该内容尚未提供权利证明,无法提供下载。
中文名草莓乐园:圣诞快乐
英文名Strawberry Shortcake: Berry, Merry Christmas
资源格式DVDRip
版本[RAW][AVI]
发行时间2003年
地区美国
语言英语
简介

IPB Image

【中文名称】草莓乐园:圣诞快乐
【英文名称】Strawberry Shortcake: Berry, Merry Christmas
【视频格式】DVDRip-AVI
【字幕】暂无
【IMDB链接】http://www.imdb.com/title/tt0469836/

【内容简介】

  草莓乐园(Strawberry shortcake),风靡全球,人见人爱,引领小朋友轻鬆学英文。
  Strawberry shortcake是一个特别为2-7岁而同所设计的角色,活泼、好奇、对学习充满了兴趣。故事中以此角色为主轴,透过正面及极具教育意义的内容,让孩子在无形中潜移默化学习英语,并养成良好的性格与学习态度。每个故事集中并搭配多首好听且琅琅上口的歌曲,以添加学习乐趣并加强学习效果。
  Strawberry shortcake与Honey Pie Pony 特地到北极的holidayland挑选圣诞礼物给她的朋友,在旅途中遇到许多新奇、有趣人事物:回程中遇到融化的雪球将精心挑选的礼物弄湿了。好朋友不但没有不高兴,反而更珍惜彼此间的友谊。

【视频参数】

引用
General
Complete name : Strawberry.Shortcake.Berry.Merry.Christmas.(2007).FS.DVDRip.XviD.avi
Format : AVI
Format/Info : Audio Video Interleave
File size : 700 MiB
Duration : 45mn 11s
Overal bit rate : 2166 Kbps
Writing application : VirtualDubMod 1.5.4.1 (build 2178/release)
Writing library : VirtualDubMod build 2178/release
IAS1 : English

Video
Format : MPEG-4 Visual
Format profile : Streaming Video@L1
Format settings, BVOP : Yes
Format settings, QPel : No
Format settings, GMC : No warppoints
Format settings, Matrix : Custom
Codec ID : XVID
Codec ID/Hint : XviD
Duration : 45mn 11s
Bit rate : 2023 Kbps
Width : 608 pixels
Height : 464 pixels
Display aspect ratio : 4/3
Frame rate : 23.976 fps
Resolution : 8 bits
Colorimetry : 4:2:0
Scan type : Progressive
Bits/(Pixel*Frame) : 0.299
Stream size : 654 MiB
Writing library : XviD 1.0.0 (UTC 2004-05-09)

Audio
Format : MPEG Audio
Format version : Version 1
Format profile : Layer 3
Codec ID : 55
Codec ID/Hint : MP3
Duration : 45mn 10s
Bit rate mode : Variable
Bit rate : 130 Kbps
Nominal bit rate : 128 Kbps
Channel(s) : 2 channels
Sampling rate : 48.0 KHz
Resolution : 16 bits
Stream size : 42.0 MiB
Writing library : LAME3.90.
Encoding settings : ABR


【视频截图】
IPB Image
IPB Image
IPB Image
IPB Image

正在读取……

这里是其它用户补充的资源(我也要补充):

暂无补充资源
正在加载,请稍等...

点击查看所有23网友评论

 

(?) [公告]留口水、评论相关规则 | [活动]每日签到 轻松领取电驴经验

    小贴士:
  1. 类似“顶”、“沙发”之类没有营养的文字,对勤劳贡献的楼主来说是令人沮丧的反馈信息。
  2. 提问之前请再仔细看一遍楼主的说明,或许是您遗漏了。
  3. 勿催片。请相信驴友们对分享是富有激情的,如果确有更新版本,您一定能搜索到。
  4. 请勿到处挖坑绊人、招贴广告。既占空间让人厌烦,又没人会搭理,于人于己都无利。
  5. 如果您发现自己的评论不见了,请参考以上4条。