v

您的位置:VeryCD音乐欧美音乐

音乐资源事务区


John Mayer -《Where The Light Is: John Mayer Live in Los Angeles》Japan Bouns[APE]

  • 状态: 精华资源
  • 摘要:
    音乐风格摇滚
    发行时间2008年
    地区美国
    语言英语
  • 时间: 2009/04/02 20:15:35 发布 | 2012/02/03 08:10:28 更新
  • 分类: 音乐  欧美音乐 

paomian0379

精华资源: 170

全部资源: 171

相关: 分享到新浪微博   转播到腾讯微博   分享到开心网   分享到人人   分享到QQ空间   订阅本资源RSS更新   美味书签  subtitle
该内容尚未提供权利证明,无法提供下载。
专辑英文名Where The Light Is: John Mayer Live in Los Angeles
歌手John Mayer
音乐风格摇滚
资源格式APE
版本Japan Bouns
发行时间2008年
地区美国
语言英语
简介

IPB Image

专辑介绍:

这张专辑的双CD版我找遍淘宝,亚马逊,拍拍,终于还是让我买到了!!JOHN MAYER的巅峰现场录音专辑!!!

和很多流行歌手录音唱片比现场唱功强不同的是,JOHN MAYER的现场专辑明显比录音室作品更有听头,大段的顶级技巧的吉他SOLO也是被很多JM迷所津津乐道,而JM的唱功更是出色,DISC 1的几首不插电吉他伴奏的歌曲就可窥见一二。


  约翰·梅耶尔(John Mayer)的现场专辑《Where the Light Is: John Mayer Live in Los Angeles》是本周Top 10当中另一张新上榜的唱片。在美国上市首周,这张现场专辑共售出了大约7万5千张,空降本周Billboard 200专辑榜的第五位。据了解,这张《Where the Light Is: John Mayer Live in Los Angeles》是John Mayer的第三张现场专辑,之前的两张分别是2005年的《Try! Live in Concert》和2003年的《Any Given Thursday》。2005年,《Try! Live in Concert》首周上榜时排在第34位,首周的销量为5万张,而《Any Given Thursday》在2003年上榜第一周空降第17位,首周销量为6万4千张。

  这张现场专辑在天使之城洛杉矶的诺基亚中心录制,前五首曲目为木吉他原声曲目,而此后的10多首歌也分为两部分,一部分是John Mayer与Steve Jordan和Pino Palladino以三重奏的形式演出,其他的则是John Mayer与完整乐队的合作。对于John Mayer来说,他这几年最大的进步就是把传统的布鲁斯摇滚乐元素与他流行化的旋律结合的非常好,无论是此前的专辑《Continuum》还是这张现场专辑,我们都可以体会到John Mayer的这种进步。如今的John Mayer除了创作水平日益提高之外,吉他技术也是相当了得,弹木琴能够弹出来沉静的味道,弹电琴也能秀出来技术,Solo出来激情。五首木吉他原声曲目首首动人,而翻玩吉他之神Jimi Hendrix的名曲《Bold As Love》和《Slow Dancing In A Burning Room》更能体现出John Mayer在新一代流行摇滚创作人当中突出的吉他技术,我们也就不难理解为什么老一辈的布鲁斯爵士艺人都能看上他了。

IPB Image

IPB Image

Disc 1 CUE:

代码
PERFORMER "John Mayer"
TITLE "Where the Light Is: John Mayer Live in Los Angeles Disc 1"
FILE "John.Mayer.-.[Where.the.Light.Is.John.Mayer.Live.in.Los.Angeles.Disc.1].专辑.(ape).ape" WAVE
  TRACK 01 AUDIO
    TITLE "Neon [Acoustic Set]"
    PERFORMER "John Mayer"
    INDEX 01 00:00:00
  TRACK 02 AUDIO
    TITLE "Stop This Train [Acoustic Set]"
    PERFORMER "John Mayer"
    INDEX 01 05:55:55
  TRACK 03 AUDIO
    TITLE "In Your Atmosphere [Acoustic Set]"
    PERFORMER "John Mayer"
    INDEX 01 10:55:70
  TRACK 04 AUDIO
    TITLE "Daughters [Acoustic Set]"
    PERFORMER "John Mayer"
    INDEX 01 16:41:42
  TRACK 05 AUDIO
    TITLE "Free Fallin' [Acoustic Set]"
    PERFORMER "John Mayer"
    INDEX 01 21:46:12
  TRACK 06 AUDIO
    TITLE "Everyday I Have the Blues [Trio Set]"
    PERFORMER "John Mayer"
    INDEX 01 26:09:55
  TRACK 07 AUDIO
    TITLE "Wait Until Tomorrow [Trio Set]"
    PERFORMER "John Mayer"
    INDEX 01 30:24:00
  TRACK 08 AUDIO
    TITLE "Who Did You Think I Was [Trio Set]"
    PERFORMER "John Mayer"
    INDEX 01 34:43:12
  TRACK 09 AUDIO
    TITLE "Come When I Call [Trio Set]"
    PERFORMER "John Mayer"
    INDEX 01 39:06:40
  TRACK 10 AUDIO
    TITLE "Good Love Is on the Way [Trio Set]"
    PERFORMER "John Mayer"
    INDEX 01 42:30:02
  TRACK 11 AUDIO
    TITLE "Out of My Mind [Trio Set]"
    PERFORMER "John Mayer"
    INDEX 01 46:48:72
  TRACK 12 AUDIO
    TITLE "Vultures [Trio Set]"
    PERFORMER "John Mayer"
    INDEX 01 56:59:37
  TRACK 13 AUDIO
    TITLE "Bold as Love [Trio Set]"
    PERFORMER "John Mayer"
    INDEX 01 62:19:32


Disc 2 CUE:

代码
PERFORMER "John Mayer"
TITLE "Where the Light Is: John Mayer Live in Los Angeles Disc 2"
FILE "John.Mayer.-.[Where.the.Light.Is.John.Mayer.Live.in.Los.Angeles.Disc.2].专辑.(ape).ape" WAVE
  TRACK 01 AUDIO
    TITLE "Waiting on the World to Change [Band Set]"
    PERFORMER "John Mayer"
    INDEX 01 00:00:00
  TRACK 02 AUDIO
    TITLE "Slow Dancing in a Burning Room [Band Set]"
    PERFORMER "John Mayer"
    INDEX 01 03:50:60
  TRACK 03 AUDIO
    TITLE "Why Georgia [Band Set]"
    PERFORMER "John Mayer"
    INDEX 01 09:10:02
  TRACK 04 AUDIO
    TITLE "The Heart of Life [Band Set]"
    PERFORMER "John Mayer"
    INDEX 01 13:37:32
  TRACK 05 AUDIO
    TITLE "I Don't Need No Doctor [Band Set]"
    PERFORMER "John Mayer"
    INDEX 01 17:17:42
  TRACK 06 AUDIO
    TITLE "Gravity [Band Set]"
    PERFORMER "John Mayer"
    INDEX 01 23:20:10
  TRACK 07 AUDIO
    TITLE "I Don't Trust Myself (With Loving You) [Band Set]"
    PERFORMER "John Mayer"
    INDEX 01 33:01:15
  TRACK 08 AUDIO
    TITLE "Belief [Band Set]"
    PERFORMER "John Mayer"
    INDEX 01 41:46:07
  TRACK 09 AUDIO
    TITLE "I'm Gonna Find Another You [Band Set]"
    PERFORMER "John Mayer"
    INDEX 01 47:49:40
  TRACK 10 AUDIO
    TITLE "No Such Thing [Bouns Track]"
    PERFORMER "John Mayer"
    INDEX 01 53:31:10



专辑曲目

Disc 1:
Acoustic Set:
01.Neon
02.Stop This Train
03.In Your Atmosphere
04.Daughters
05.Free Fallin'
Trio Set:
06.Everyday I Have The Blues
07.Wait Until Tomorrow
08.Who Did You Think I Was
09.Come When I Call
10.Good Love Is On The Way
11.Out Of My Mind
12.Vultures
13.Bold As Love

Disc 2:
Band Set:
01. Waiting On The World To Change
02. Slow Dancing In A Burning Room
03. Why Georgia
04. The Heart Of Life
05. I Don't Need No Doctor
06. Gravity
07. I Don't Trust Myself (With Loving You)
08. Belief
09. I'm Gonna Find Another You
10. No Such Thine [Japan Bouns Track]

正在读取……

这里是其它用户补充的资源(我也要补充):

暂无补充资源
正在加载,请稍等...

点击查看所有75网友评论

 

(?) [公告]留口水、评论相关规则 | [活动]每日签到 轻松领取电驴经验

    小贴士:
  1. 类似“顶”、“沙发”之类没有营养的文字,对勤劳贡献的楼主来说是令人沮丧的反馈信息。
  2. 提问之前请再仔细看一遍楼主的说明,或许是您遗漏了。
  3. 勿催片。请相信驴友们对分享是富有激情的,如果确有更新版本,您一定能搜索到。
  4. 请勿到处挖坑绊人、招贴广告。既占空间让人厌烦,又没人会搭理,于人于己都无利。
  5. 如果您发现自己的评论不见了,请参考以上4条。