v

您的位置:VeryCD动漫剧场动画

动漫资源事务区


《鬼》(Oni)[天狱字幕组][简体外挂字幕&原声乐][川本喜八郎作品集][AVI+MP3][DVDRip]

  • 状态: 精华资源
  • 摘要:
    发行时间1972年
    语言普通话,日语
  • 时间: 2009/03/28 15:16:22 发布 | 2009/03/30 19:07:37 更新
  • 分类: 动漫  剧场动画 

天狱神社

精华资源: 53

全部资源: 54

相关: 分享到新浪微博   转播到腾讯微博   分享到开心网   分享到人人   分享到QQ空间   订阅本资源RSS更新   美味书签  subtitle
该内容尚未提供权利证明,无法提供下载。
中文名
英文名Oni
资源格式DVDRip
版本[天狱字幕组][简体外挂字幕&原声乐][川本喜八郎作品集][AVI+MP3]
发行时间1972年
地区日本
语言普通话,日语
简介

IPB Image

【片名】
【别名】Oni
【字幕】天狱字幕组/外挂中文字幕
【格式】 AVI

天狱日翻组招收人员
希望对中古物有爱的人能够加入制作,有意者请点击

【简 介】

  故事来源于《今昔物语》。很久之前,女人的一生是凄惨的一生:年幼时,被无情的父母压迫放逐,青春期同样悲悲惨惨,结了婚,丈夫也是无情,而因贫穷导致的常年生病的身躯拖到残年时,她也并不能被什么从凄惨的生活中拯救出来。因此,有传说她(男人也是如此)老了的时候,会化成厉鬼吃掉自己的亲生骨肉。

  有一对与母亲相依为命的猎人兄弟上山打猎前,母亲叮咛他们夜路太黑小心前行,兄弟两人前行过程中,弟弟察觉环境的异样,但哥哥均没当回事。其后,弟弟上树和树下的哥哥分别等待猎物的出现时,头发被鬼抓住,哥哥一箭射过去,鬼的一只手臂随弟弟落下,两人细看这只流血不止的手臂时,吃惊地发现它是母亲的。

【囧】

那个,个人认为这是很高的杰作,无论是音乐上还是画面上嗯,嘛。无爱的请不要下,因为这个看得让人很郁闷的。真的...

另外此片时长8分钟,无对白语言,但是鉴于有日文字幕,就顺手制作了。


【Staff】

1972年/8分/カラー
制作:川本プロダクション
原作:今昔物语より
脚本・监督:川本喜八郎
撮影:吉冈谦・田村実
美术:壬生露彦・中川凉
人形アニメーション:川本喜八郎
作曲・演奏・三味线:鹤泽清治
尺八:山口五郎
録音:伊藤一男
编集:园尚子

【截图】

IPB ImageIPB ImageIPB ImageIPB ImageIPB ImageIPB Image

【招收人员】

日社组:日语翻译,校对,时间轴。
要求:对自己的日语有信心,时间足,最重要是要有爱。时间轴最好有经验。
由于制作的东西都是冷门偏门,原则上不制作新番,所以要有所思想准备。
有意者请加MSN:auxx@vip.qq.comQQ:346580358

【附】

「川本喜八郎」木偶动画大师专题

【文件信息】

代码
I:\下载\[鬼].[HiH][Oni][Kihachiro.Kawamoto][DVDrip].avi
   General
      Complete name : I:\下载\[鬼].[HiH][Oni][Kihachiro.Kawamoto][DVDrip].avi
      Format : AVI
      Format/Info : Audio Video Interleave
      File size : 61.0 MiB
      Duration : 7mn 37s
      Overall bit rate : 1119 Kbps
      Writing application : Nandub v1.0rc1
      Writing library : Nandub build 1841/release
   Video
      Format : MPEG-4 Visual
      Format profile : Streaming Video@L1
      Format settings, BVOP : Yes
      Format settings, QPel : No
      Format settings, GMC : No warppoints
      Format settings, Matrix : Default
      Codec ID : XVID
      Codec ID/Hint : XviD
      Duration : 7mn 37s
      Bit rate : 1016 Kbps
      Width : 608 pixels
      Height : 448 pixels
      Display aspect ratio : 4/3
      Frame rate : 23.976 fps
      Resolution : 8 bits
      Colorimetry : 4:2:0
      Scan type : Progressive
      Bits/(Pixel*Frame) : 0.156
      Stream size : 55.4 MiB (91%)
      Writing library : XviD 1.1.2 (UTC 2006-11-01)
   Audio
      Format : MPEG Audio
      Format version : Version 1
      Format profile : Layer 3
      Codec ID : 55
      Codec ID/Hint : MP3
      Duration : 7mn 37s
      Bit rate mode : Variable
      Bit rate : 89.1 Kbps
      Minimum bit rate : 32.0 Kbps
      Channel(s) : 2 channels
      Sampling rate : 48.0 KHz
      Resolution : 16 bits
      Stream size : 4.86 MiB (8%)
      Alignment : Aligned on interleaves
      Interleave, duration : 24 ms (0.58 video frame)
      Interleave, preload duration : 474 ms
      Writing library : LAME3.97b
      Encoding settings : VBR (mtrh)

正在读取……

这里是其它用户补充的资源(我也要补充):

暂无补充资源
正在加载,请稍等...

点击查看所有131网友评论

 

(?) [公告]留口水、评论相关规则 | [活动]每日签到 轻松领取电驴经验

    小贴士:
  1. 类似“顶”、“沙发”之类没有营养的文字,对勤劳贡献的楼主来说是令人沮丧的反馈信息。
  2. 提问之前请再仔细看一遍楼主的说明,或许是您遗漏了。
  3. 勿催片。请相信驴友们对分享是富有激情的,如果确有更新版本,您一定能搜索到。
  4. 请勿到处挖坑绊人、招贴广告。既占空间让人厌烦,又没人会搭理,于人于己都无利。
  5. 如果您发现自己的评论不见了,请参考以上4条。