v

您的位置:VeryCD音乐原声音乐

音乐资源事务区


李羿慧 -《中国媳妇》(Chinese Wives)DSD[APE]

  • 状态: 精华资源
  • 摘要:
    发行时间2008年10月27日
  • 时间: 2009/03/16 18:43:06 发布 | 2009/03/19 23:57:27 更新
  • 分类: 音乐  原声音乐 

sqhy113

精华资源: 328

全部资源: 360

相关: 分享到新浪微博   转播到腾讯微博   分享到开心网   分享到人人   分享到QQ空间   订阅本资源RSS更新   美味书签  subtitle
该内容尚未提供权利证明,无法提供下载。
专辑中文名中国媳妇
专辑英文名Chinese Wives
艺术家李羿慧
资源格式APE
版本DSD
发行时间2008年10月27日
地区大陆
语言普通话
简介

IPB Image

专辑名称:中国媳妇
专辑艺人:李羿慧
发行公司:火烈鸟(FMG)唱片
出版公司:深圳音像公司
ISRC:CN-F29-08-308-00/A.J6

专辑介绍:

  很想拥有“中国媳妇系列”的第一张原声特辑,因为它是妈妈的最爱!
  
  做这一次“中国媳妇系列”等剧的原音收集着实很不容易!跨海峡越彼洋,真正是两岸三地的全球性合作。
  “中国媳妇系列”在近两年作为“最感动人的影视剧”赚下无数观众的眼泪,创07、08年最高电视收视率。辉煌的银幕经典注定留下众多脍炙人口的影视歌曲,于是,应广大观众的强烈需求,我们的这张原声特辑应势而生。
  
  伴随着感人肺腑的旋律和歌词,让我们再一次回味剧中的情真意切,体味永恒的情感诗篇。演唱此辑大部分歌曲的李羿慧,作为一个身残志坚的非职业歌手,在动听的旋律、感人的歌词中,成就了这最有感染力、最动之以情的作品。

  收藏它,便收藏了这个时期的回忆。

代码
REM DISCID 850A690C
PERFORMER "李羿慧"
TITLE "中国媳妇"
FILE "李羿慧.-.[中国媳妇].专辑.(APE).ape" WAVE
TRACK 01 AUDIO
TITLE "花开花落"
INDEX 01 00:00:00
TRACK 02 AUDIO
TITLE "哑巴新娘"
INDEX 00 03:47:17
INDEX 01 03:51:26
TRACK 03 AUDIO
TITLE "我怎么哭了"
INDEX 00 08:11:17
INDEX 01 08:15:41
TRACK 04 AUDIO
TITLE "再会无错的情人"
INDEX 00 12:21:26
INDEX 01 12:26:49
TRACK 05 AUDIO
TITLE "我的妈妈"
INDEX 00 16:16:45
INDEX 01 16:20:47
TRACK 06 AUDIO
TITLE "酒干倘卖无"
INDEX 00 20:03:65
INDEX 01 20:07:68
TRACK 07 AUDIO
TITLE "姊妹情深"
INDEX 00 24:23:59
INDEX 01 24:26:61
TRACK 08 AUDIO
TITLE "鸳鸯弦"
INDEX 00 27:41:41
INDEX 01 27:43:44
TRACK 09 AUDIO
TITLE "真爱一世情"
INDEX 00 32:17:41
INDEX 01 32:21:62
TRACK 10 AUDIO
TITLE "雪中泪痕"
INDEX 00 36:25:45
INDEX 01 36:30:47
TRACK 11 AUDIO
TITLE "错爱"
INDEX 00 40:06:39
INDEX 01 40:10:42
TRACK 12 AUDIO
TITLE "明天你是否依然爱我"
INDEX 00 43:32:68
INDEX 01 43:36:80



专辑曲目

01.花开花落
02.哑巴新娘
03.我怎么哭了(曾心梅)
04.再会无错的情人(李羿慧VS陈波)
05.我的妈妈
06.酒干倘卖无
07.姊妹情深(嘉云)
08.鸳鸯弦
09.真爱一世情
10.雪中泪痕(嘉云)
11.错爱
12.明天你是否依然爱我

正在读取……

这里是其它用户补充的资源(我也要补充):

暂无补充资源
正在加载,请稍等...

点击查看所有33网友评论

 

(?) [公告]留口水、评论相关规则 | [活动]每日签到 轻松领取电驴经验

    小贴士:
  1. 类似“顶”、“沙发”之类没有营养的文字,对勤劳贡献的楼主来说是令人沮丧的反馈信息。
  2. 提问之前请再仔细看一遍楼主的说明,或许是您遗漏了。
  3. 勿催片。请相信驴友们对分享是富有激情的,如果确有更新版本,您一定能搜索到。
  4. 请勿到处挖坑绊人、招贴广告。既占空间让人厌烦,又没人会搭理,于人于己都无利。
  5. 如果您发现自己的评论不见了,请参考以上4条。