v

您的位置:VeryCD音乐古典音乐

音乐资源事务区


Rachmaninov -《拉赫玛尼诺夫: 第一和第二钢琴协奏曲》(Rachmaninov Piano Concertos Nos. 1 & 2)Seiji Ozawa - Zimermann / Boston Symphony Orchestra[FLAC]

  • 状态: 精华资源
  • 摘要:
    古典类型协奏曲
    发行时间2004年02月10日
  • 时间: 2009/03/14 21:41:38 发布 | 2009/03/14 23:58:21 更新
  • 分类: 音乐  古典音乐 

阿_亮

精华资源: 15

全部资源: 22

相关: 分享到新浪微博   转播到腾讯微博   分享到开心网   分享到人人   分享到QQ空间   订阅本资源RSS更新   美味书签  subtitle
该内容尚未提供权利证明,无法提供下载。
专辑英文名Rachmaninov Piano Concertos Nos. 1 & 2
专辑中文名拉赫玛尼诺夫: 第一和第二钢琴协奏曲
艺术家Rachmaninov
古典类型协奏曲
资源格式FLAC
版本Seiji Ozawa - Zimermann / Boston Symphony Orchestra
发行时间2004年02月10日
地区德国
简介

IPB Image

作曲: 谢尔盖.拉赫玛尼诺夫 (Sergey Rachmaninov)
表演: 齐墨尔曼 (Krystian Zimerman)
指挥: 小泽征尔 (Seiji Ozawa)
乐团: 波士顿交响乐团 (Boston Symphony Orchestra)
出品: 德意志唱片 (Deutsche Grammophon)
ASIN: B0000V8CIQ

专辑介绍

  此CD收录了谢尔盖拉赫玛尼诺夫(Sergey Rachmaninov)的第一钢琴协奏曲F大小调(作品1)和钢琴协奏曲第2号C小调(作品18),由日本著名指挥家小泽征尔(Seiji Ozawa )担任指挥,齐墨尔曼(Krystian Zimerman)和波士顿交响乐团(Boston Symphony Orchestra)演奏。

  Zimerman表示自己已与此曲结缘近三十年,早在他参与肖邦钢琴大赛之前,他与音乐学院的交响乐团受BBC之邀参与Prom逍遥音乐会。在音乐会前他已曾录音并寄到BBC以作参与Prom条件之一,最后因参与肖邦大赛而不能成行,并谓BBC在尘封的旧录音中会拥有他青春时期的Rachmaninov Piano Concerto No.2。

  Zimerman 也听过各大钢琴家包括作曲家自已的演奏,他常不明为何作曲家的演奏是那样平淡,可能作曲家害怕表达自已内心的情感,故他要将Rachmaninov 隐藏在内心的情感爆发出来。

  Zimerman 的录音则率性而行,速度浪漫之极,优美的乐段Zimerman 像希望时间停留一样,不希望有一个音符被遗忘。炫技的乐段则极尽官能剌激,他的演绎很是动人。

关于谢尔盖·瓦西里耶维奇·拉赫玛尼诺夫(俄文:Серге́й Васи́льевич Рахма́нинов;英文:Sergei Vassilievitch Rachmaninoff,1873年4月1日-1943年3月28日):

  出生于俄国的作曲家、指挥家及钢琴演奏家,1943年临终前入美国籍。他的作品甚富有俄国色彩,充满激情,且旋律优美,其钢琴作品更是以难度见称,纳入于不少钢琴演奏家的表演曲目中。被誉为20世纪最著名的俄罗斯作曲家、钢琴家兼指挥,俄罗斯浪漫主义传统的最后一位伟大倡导者。

  拉赫玛尼诺夫编写了五首以钢琴及交响乐演奏的作品,分别为四首钢琴协奏曲及《帕格尼尼主题狂想曲》(Rhapsody on a Theme of Paganini),其中以《第二钢琴协奏曲》及《第三钢琴协奏曲》最著名,《帕格尼尼主题狂想曲》中一段行板(Var.18)更是脍炙人口之作,被电影《似曾相识》(Somewhere in Time)采纳为背景音乐。

  钢琴独奏方面,最著名的莫过于他的《升c小调前奏曲》。拉赫玛尼诺夫亦曾把多首古典音乐作品改编成钢琴独奏版本,较著名的有巴哈的前奏曲、里姆斯基-科萨科夫的大黄蜂的飞行、弗里茨·克莱斯勒的爱之悲及爱之喜等。

  拉赫玛尼诺夫曾编写三首交响乐作品,《第一交响乐》对拉赫玛尼诺夫而言是失败之作,他甚至把手稿撕毁,直至他死后,整份乐谱被才发现收藏于列宁格勒音乐学院中,至1948年才于美国作第二次公演以纪念拉赫玛尼诺夫逝世五周年。然而,《第二交响乐》及《第三交响乐》仍是较出名的作品。拉赫玛尼诺夫亦曾编写多首交响诗,如:Isle of the Dead、The Rock、Symphonic Dances等。

  拉赫玛尼诺夫亦有编写声乐及合唱作品,包括有弥撒曲Vesper Mass、The Liturgy of St. John Chrysostom及The Bells。短歌Vocalise更被改编成不同乐器的独奏曲。

关于小泽征尔

  日本著名指挥家,后加入美国籍。生于中国沈阳,1951年入日本东京桐朋学园高等学校音乐系学习指挥。1959年在法国第九届贝桑松国际指挥比赛、伯克郡音乐节的指挥会演和卡拉扬主持的比赛中获奖。1960年初次登台指挥法国国立广播管弦乐团,接着又出色地指挥过纽约爱乐乐团,旧金山、加拿大、伦敦交响乐团和维也纳乐团等,1970年起任旧金山交响乐团常任指挥和音乐指导,后与波士顿交响乐团签订终身合同,任音乐指导兼指挥,并兼任新日本爱乐乐团的首席指挥,每年都有一定时间回日本。

  1935年,出生在中国东北沈阳的小泽征尔获得法国贝桑松国际指挥比赛第一名后,先后跟随指挥大师卡拉扬和伯恩斯坦学习。从1973年开始担任美国波士顿交响乐团音乐总监后,他跻身世界最优秀的指挥家行列。在波士顿近30年的指挥生涯中小泽征尔创造了古典乐坛的奇迹,使乐团成为国际上最优秀的交响乐团之一。1979年3月,他曾率该乐团成功地访问中国。2002年7月,当他从波士顿交响乐团音乐总监光荣卸任时,全体波士顿市民都对他表示了最高的敬意。他从2002-2003音乐季开始担任维也纳国家歌剧院的音乐总监,更增强了他在国际乐坛上的影响力和威望。2002年,小泽征尔与维也纳爱乐乐团合作演出了2002年维也纳新年音乐会,并大获成功。

  小泽征尔的指挥风格,既能热情洋溢、豪迈奔放地将乐曲引向高潮,又能恰如其分地控制速度和力度的变化;他善于运用带有表情的目光和“会说话”的双臂来表达自己的思想,音乐表现意图十分明确。他指挥时好像在浩瀚的音乐海洋中游泳,使观众感到他浑身都是音乐。

  对于中国音乐爱好者来说,如果说谁是他们最为熟悉的世界指挥大师的话,那么小泽征尔的名字肯定是会排在首位的,因为这位现代指挥艺术中非常有代表性的指挥大师,曾经在20 世纪的70 年代末期和80 年代初期,先后四次来我国进行访问演出。当时,他那精湛而又热情洋溢的指挥艺术,曾给“文革”之后的中国音乐舞台注入了一种新鲜的活力,对于当时与世隔绝多年后首次打开国门的中国来说,小泽征尔是我们所接触到的第一位西方现代指挥家,因此他那别具一格的精彩指挥艺术,便对当时的中国音乐界产生了一种特殊的影响和作用。

  小泽征尔是当今世界上极负盛名的新一代指挥大师,他的名字是与阿巴多、马泽尔、普列文和梅塔等人经常并列在一起的,属于继老一辈大师卡拉扬、伯恩斯坦和索尔蒂等人之后的,新崛起的伟大人物之一。另一个具有特殊意义的方面,则是他作为亚洲人而首次成为世界一流指挥家的奇迹,这在几百年来一直以欧美人为统治领地的世界指挥艺术上,的确是一个极其不平凡的例子。现在,人们常将他与印度指挥家祖宾·梅塔和新加坡指挥家朱晖一起誉为“世界三大东方指挥家”。

  小泽征尔与中国还曾有着一个重要的缘分,那就是他是一个出生在中国的著名指挥家。他的家庭早在20 世纪30 年代初期便来到了中国,当时,他的父亲小泽开作曾在长春等地当牙科医生,当“九·一八”事变发生以后,他们全家便搬到了沈阳,而小泽征尔就是在这段时期里出生的。 1935 年,小泽征尔出生在中国的沈阳,在他出生后的第二年,他们便举家迁到了北京,在这里一直居住到太平洋战争爆发的前夕,他们全家才回了日本的东京,因此,小泽征尔的童年一直是在中国度过的,据他本人的回忆,在上小学之前,他的大脑中所有记忆都是对北京的印象。
  
  小泽征尔是20 世纪指挥史上的一位指挥奇才,他是那种非常善于利用自己的技巧和风格来使乐队发挥潜力和形成辉煌音响效果的指挥家,同时,他也是一位十分善于用自己的情感来揭示作曲家的作品内容的杰出大师。他对待艺术的严肃认真的态度和勤奋追求的刻苦精神,的确是很多人都望尘莫及的,当人们看到站在指挥台上的,以自己全身心的热情投入在音乐意境中的小泽征尔时,没有人不是从心底里对他产生钦佩之情的,当他拿起指挥棒开始指挥乐队演奏时,他身上的每一个部位和每一根神经都会被音乐所驱动,而代之以来的便是那从他的指挥棒下流淌出的美妙而动人的音乐。还是评论家们说得好:“小泽征尔是一位真正的、具有高雅艺术鉴赏力的艺术家,从他的风格和特点上来看,他真不愧是一个浑身都是音乐的指挥大师。”

资源发布状态:

IPB Image

日志:

代码
Exact Audio Copy V0.99 prebeta 4 from 23. January 2008

EAC 抓取日志文件从14. 三月 2009, 19:24

Zimermann / BostonSO & Ozawa - Rachmaninoff Piano Concer Nos. 1 & 2

使用驱动器  :SONY    DVD RW DW-Q30A   Adapter: 0  ID: 0

读取模式     : 保护
使用精确流   : 是
废除音频缓冲 : 是
使用 C2 指针 : 否

组合读/写偏移校正              : 0
读取 Lead-In 和 Lead-Out       : 否
用静音填充抓取中丢失偏移的采样 : 是
去除首尾静音块                 : 否
在 CRC 计算中使用了空样本      : 否
已用接口                       : Win NT 及 2000 本地 Win32 接口

所用输出格式   : 用户定义的编码器
已选比特率     : 1024 kBit/s
质量           : 高
添加 ID3 标签  : 否
命令行压缩器   : E:\Program Files\Exact Audio Copy\FLAC\FLAC.EXE
附加命令行参数 : -6 -V -T "ARTIST=%a" -T "TITLE=%t" -T "ALBUM=%g" -T "DATE=%y" -T "TRACKNUMBER=%n" -T "GENRE=%m" -T "COMMENT=%e" %s -o %d


被抓轨 CD 的 TOC

     音轨 |   开始   |   长度   | 起始扇区 | 结尾扇区
    --------------------------------------------------
       1  |  0:00.00 | 12:24.00 |       0  |   55799  
       2  | 12:24.00 |  6:44.00 |   55800  |   86099  
       3  | 19:08.00 |  7:42.00 |   86100  |  120749  
       4  | 26:50.00 | 11:48.00 |  120750  |  173849  
       5  | 38:38.00 | 12:17.00 |  173850  |  229124  
       6  | 50:55.00 | 11:34.00 |  229125  |  281174  


范围状态及错误

已选择范围

     文件名 H:\电驴发布目录\Music\Zimermann - BostonSO & Ozawa - Rachmaninoff Piano Concer Nos. 1 & 2.wav

     峰值电平 99.0 %
     范围质量 99.9 %
     复制 CRC E917B489
     复制成功

没有错误发生

状态报告结尾



专辑曲目

01. Op.1 - 1. Vivace
02. Op.1 - 2. Andante
03. Op.1 - 3. Allegro vivace
04. Op.18 - 1. Moderato
05. Op.18 - 2. Adagio sostenuto
06. Op.18 - 3. Allegro scherzando

正在读取……

这里是其它用户补充的资源(我也要补充):

暂无补充资源
正在加载,请稍等...

点击查看所有68网友评论

 

(?) [公告]留口水、评论相关规则 | [活动]每日签到 轻松领取电驴经验

    小贴士:
  1. 类似“顶”、“沙发”之类没有营养的文字,对勤劳贡献的楼主来说是令人沮丧的反馈信息。
  2. 提问之前请再仔细看一遍楼主的说明,或许是您遗漏了。
  3. 勿催片。请相信驴友们对分享是富有激情的,如果确有更新版本,您一定能搜索到。
  4. 请勿到处挖坑绊人、招贴广告。既占空间让人厌烦,又没人会搭理,于人于己都无利。
  5. 如果您发现自己的评论不见了,请参考以上4条。