v

您的位置:VeryCD音乐其它音乐

音乐资源事务区


Various Artists -《麦景图高保真试音天碟》(Mcintosh Audiophile Test Reference CD)24K金版[APE]

  • 状态: 精华资源
  • 摘要:
    音乐类型试音碟
    发行时间2004年11月
  • 时间: 2009/02/23 11:01:14 发布 | 2009/02/23 14:16:18 更新
  • 分类: 音乐  其它音乐 

阿_亮

精华资源: 15

全部资源: 22

相关: 分享到新浪微博   转播到腾讯微博   分享到开心网   分享到人人   分享到QQ空间   订阅本资源RSS更新   美味书签  subtitle
该内容尚未提供权利证明,无法提供下载。
专辑中文名麦景图高保真试音天碟
专辑英文名Mcintosh Audiophile Test Reference CD
艺术家Various Artists
音乐类型试音碟
资源格式APE
版本24K金版
发行时间2004年11月
地区美国
语言英语
简介

IPB Image

专辑简介:

美国著名音响厂牌Mclntosh(麦景图)为记念建厂50周年,推出最具纪念性金装版C2200 Gold Tube前级及MC2000后级,并同时推出Mclntosh认可的24k金试音天碟。

内容以管弦乐及合唱音乐为主,尽皆雅俗共赏的古典名曲之作,可称为近年最高素质可供入门古典及发烧测试的CD唱片,虽然价钱贵少少,但对于发烧友来讲,这只唱片就真是必备之碟啦!

有许多朋友问我,怎样才能较快地激发出对古典音乐的兴趣?我觉得,如果你无法经常光临音乐厅的现场,那么,有一套较好的音响系统,或一张合适的唱片,应该是一个很好的开始。要知道,如果用失真严重的音响来完成和古典音乐的初恋,其结果,可能让你觉得恐惧或索然无味,因为你的耳朵会受不了那一大堆的乐器发出的庞大声音。你会失望于自己听到的不是美妙和丰富,而是繁杂和刺耳。同样的,在开始时,就尝试聆听那些艰深得让你觉得枯燥和不知所云的音乐,不管作曲家多么伟大,你也可能就此止步于古典大门之外。而和你“第一次亲密接触”的若是那些迷人优美、引人入胜的作品,情况则可能相反。因为,感官总是比认识先行,轻松而好听的声音,会将你的神经牢牢牵住,然后让你头也不回地踏上爱乐之路。

当然,得到一套上好的音响器材需要付出很高的代价,不是人人可以消受。以我的经验,去寻找一张好声又好听的古典唱片,也不失为退而求其次的方法。市面上,那些以高级音响器材的名义推出的发烧试音碟,常常都收录古典音乐的精华和小品,好声和好听的概率很高,应该是初哥们在感官上培养兴趣,渐渐去接近古典音乐的密径。

香港Top Music唱片公司近几年屡屡和世界顶级音响厂家合作,软硬兼施,捆绑推出专门的试音唱片。他们为WILSON AUDIO、Accustic Artis、MIT、Spectral、Unison Research和Matisse等Hi-End器材度身定制的试音唱片,不仅音响效果言之有物,可听性也是非常强,在发烧圈中博得阵阵叫好声。

切莫以为此类以高级音响品牌名义出品的试音碟,仅仅只有噱头。它们虽然带有明显的商业性,内容也看似“新瓶装旧酒”,但要制作得好,其实并非易事。内行人都知道,一张好的试音唱片在曲目和录音的选择上学问其实很大,决不是胡乱拼凑、拉到篮里就是菜这么简单。首先,除了效果要出挑,不能辱没这些极品音响的金字招牌,录音更要求能和器材本身的声音特质相吻合,以期扬长避短,凸现该品牌器材与众不同的声音魅力。比如所挂名的音响牌子如果是以出品巨无霸扬声器闻名的,那么试音碟所选的录音在力度、场面、动态和低频方面一定不会欠奉,一听就会让你彻底相信,只有这些“大家伙”才可以不折不扣地营造出如此激动人心的爆棚效果。而若是为小型胆机牌子出品的试音碟,录音则必以超精致、超细腻的音色迷倒众生。如果同样选用“面无人色”的大锣大鼓,肯定是不明智的,此时小编制的独奏和室内乐才是首选。

另外,这类试音碟的音乐内容也要求有非常高的可听性,既要符合大多数人的聆听趣味,又要彰显那些高级音响器材的艺术价值观和自身品味。要知道,坐下来听发烧友为你SHOW器材,和一本正经听音乐是不一样的,为了要在最短的时间内吸引人的听觉,试音碟中的音乐总是尽量短小而非常好听,令偶尔闻之的人也会留下深刻印象。

Top Music在2002年为美国元老级音响名牌McIntosh(麦景图)度身制作的试音碟,就拥有了作为一张优秀发烧试音碟的一切必备要素,不仅发烧友用之试音会爱不释手,“耳油淌满地”,单论欣赏性,对初识古典音乐人士而言也具有很强的吸引力。

这张试音碟的选曲悉数来自美国发烧录音厂家Delos的录音母带;内容则完全以古典音乐中精华乐段为主,分别来自斯特拉文斯基《火鸟组曲》、德沃夏克《新世纪交响曲》、比才《卡门组曲》、伯辽兹的《幻想交响曲》、科普兰的《牛仔比利》、维瓦尔弟的《四季》等热门的作品,想必专门编辑一份古典音乐入门的教科书,也不过是选取这些乐段做示范。音乐之好听,我不敢说百分之百的人都无法抗拒,但至少我的一个从来不听古典的朋友听到之后,就抢去听了好久都不肯归还。

在录音上,这张唱片由大名鼎鼎的McIntosh背书,实在要不好声都很难。拥有半个多世纪的McIntosh,在世界音响制造业中拥有异常辉煌的业绩,和许多经典、里程碑式的杰作。这家以电子管器材起家的音响厂至今仍然保持着其特有的传统和鲜明的风格。除了带有湖蓝色玻璃表头和老式旋钮的古老外观,代表着McIntosh独一无二的品牌标志,温暖、厚润、幼滑,带有粘稠质感的音色,几乎也像烙印般打在他家的所有产品之上。

这张唱片上除了标明是使用了24BIT的数码技术,和采用24K的纯金压片,我不知道制作者还使用了什么样的处理方法,竟然使这张唱片中的每一段录音,都带上了“麦景图”招牌般的迷人音质:弥漫的胆味,晕黄的音色,弹性丰富而坚实饱满的低频,可以抽丝剥茧的层次感,以及多到装不下的空气感。

就算不使用“麦记”的音响来聆听,你仍然可以轻易领略到美式音响的传统强项——雄浑、大气,以及摧枯拉朽的力度。不过,即使有些乐段的大鼓擂得震天响,场面火爆到让你喘不过气来,我相信你的耳朵仍然可以欣然接受那种速度从容,毫无刺激感的声音。一切听起来都非常醇厚,非常耐听。这正是麦景图特有的音乐表现力。

IPB Image

IPB Image

代码
Exact Audio Copy V0.99 prebeta 4 from 23. January 2008

EAC 抓取日志文件从22. 二月 2009, 20:44

Mcintosh.Audiophile.Test.Reference.CD

使用驱动器  :SONY    DVD RW DW-Q30A   Adapter: 0  ID: 0

读取模式     : 保护
使用精确流   : 是
废除音频缓冲 : 是
使用 C2 指针 : 是

组合读/写偏移校正              : 0
读取 Lead-In 和 Lead-Out       : 否
用静音填充抓取中丢失偏移的采样 : 是
去除首尾静音块                 : 否
在 CRC 计算中使用了空样本      : 否
已用接口                       : Win NT 及 2000 本地 Win32 接口

所用输出格式   : 用户定义的编码器
已选比特率     : 1024 kBit/s
质量           : 高
添加 ID3 标签  : 否
命令行压缩器   : E:\Program Files\Exact Audio Copy\FLAC\FLAC.EXE
附加命令行参数 : -6 -V -T "ARTIST=%a" -T "TITLE=%t" -T "ALBUM=%g" -T "DATE=%y" -T "TRACKNUMBER=%n" -T "GENRE=%m" -T "COMMENT=%e" %s -o %d


范围状态及错误

已选择范围

     文件名 H:\电驴发布目录\Music\Mcintosh.Audiophile.Test.Reference.CD\Mcintosh.Audiophile.Test.Reference.CD.wav

     峰值电平 100.0 %
     范围质量 100.0 %
     复制 CRC DF172694
     复制成功

没有错误发生

状态报告结尾


代码
PERFORMER "Various Artists"
TITLE "McIntosh Audiophile Test Reference"
FILE "McIntosh Audiophile Test Reference.ape" WAVE
  TRACK 01 AUDIO
    TITLE "Stravinsky - The Firebird Suite - Internal Dance (Excerpt)"
    PERFORMER "Stravinsky - The Firebird Suite - Internal Dance (Excerpt)"
    INDEX 01 00:00:00
  TRACK 02 AUDIO
    TITLE "Starker - Duo For Violin And Cello, Op. 7 - Allegro Serioso, Non Troppo (Reor..."
    PERFORMER "Starker - Duo For Violin And Cello, Op. 7 - Allegro Serioso, Non Troppo (Reor..."
    INDEX 00 04:47:23
    INDEX 01 04:49:15
  TRACK 03 AUDIO
    TITLE "Dvorak - Symphony No.9 In E Minor, Op.95, From The New World - Allegro Con Fuoco"
    PERFORMER "Dvorak - Symphony No.9 In E Minor, Op.95, From The New World - Allegro Con Fuoco"
    INDEX 00 12:43:73
    INDEX 01 12:45:66
  TRACK 04 AUDIO
    TITLE "Scchedrin - The Carmen Balet - Iw. Torero"
    PERFORMER "Scchedrin - The Carmen Balet - Iw. Torero"
    INDEX 00 16:24:11
    INDEX 01 16:26:04
  TRACK 05 AUDIO
    TITLE "Voices Of Angels - Vos Flores Rosarum"
    PERFORMER "Voices Of Angels - Vos Flores Rosarum"
    INDEX 00 19:05:31
    INDEX 01 19:07:23
  TRACK 06 AUDIO
    TITLE "Aaron Copland - Billy The Kid (Suite From The Ballet) - Gun Battle"
    PERFORMER "Aaron Copland - Billy The Kid (Suite From The Ballet) - Gun Battle"
    INDEX 00 22:27:06
    INDEX 01 22:28:69
  TRACK 07 AUDIO
    TITLE "Antonio Vivaldi - Four Seasons - Concerto In E Major, RV 269 'Spring' I, Allegro"
    PERFORMER "Antonio Vivaldi - Four Seasons - Concerto In E Major, RV 269 'Spring' I, Allegro"
    INDEX 00 24:32:71
    INDEX 01 24:34:64
  TRACK 08 AUDIO
    TITLE "Astor Piazzolla - Libertango (Tangos Arranged For Saxophone And Orchestra)"
    PERFORMER "Astor Piazzolla - Libertango (Tangos Arranged For Saxophone And Orchestra)"
    INDEX 00 27:55:25
    INDEX 01 27:57:17
  TRACK 09 AUDIO
    TITLE "Beethoven - Adagio Cantabile From Sonata Op.13 (Pathetique)"
    PERFORMER "Beethoven - Adagio Cantabile From Sonata Op.13 (Pathetique)"
    INDEX 00 32:40:13
    INDEX 01 32:42:06
  TRACK 10 AUDIO
    TITLE "Berlioz - Symphonie Fantastique, Op. 14 Marche Au Supplice (Marche To The Sca..."
    PERFORMER "Berlioz - Symphonie Fantastique, Op. 14 Marche Au Supplice (Marche To The Sca..."
    INDEX 00 38:26:20
    INDEX 01 38:28:13
  TRACK 11 AUDIO
    TITLE "Macal - The Red Poppy, Ballet Suite, Op.70 - Heroic Coolie Dance"
    PERFORMER "Macal - The Red Poppy, Ballet Suite, Op.70 - Heroic Coolie Dance"
    INDEX 00 42:55:01
    INDEX 01 42:56:68
  TRACK 12 AUDIO
    TITLE "Macal - The Red Poppy, Ballet Suite, Op. 70 - Chinese Dance"
    PERFORMER "Macal - The Red Poppy, Ballet Suite, Op. 70 - Chinese Dance"
    INDEX 00 46:58:36
    INDEX 01 47:00:17
  TRACK 13 AUDIO
    TITLE "Peter Ilyich Tchaikovsky - Serenade For Strings, Op 48, II, Walzer"
    PERFORMER "Peter Ilyich Tchaikovsky - Serenade For Strings, Op 48, II, Walzer"
    INDEX 00 49:02:73
    INDEX 01 49:04:65
  TRACK 14 AUDIO
    TITLE "Dmitri Shostakovich - Symphony No. 10 In E Minor, Opus 93 II, Allegro"
    PERFORMER "Dmitri Shostakovich - Symphony No. 10 In E Minor, Opus 93 II, Allegro"
    INDEX 00 53:01:39
    INDEX 01 53:03:31
  TRACK 15 AUDIO
    TITLE "Aaron Copland - The Red Pony - Happy Ending"
    PERFORMER "Aaron Copland - The Red Pony - Happy Ending"
    INDEX 00 57:30:20
    INDEX 01 57:32:09



专辑曲目

01. Stravinsky: The Firebird Suite - Infernal Dance(斯特拉温斯基:恶魔之舞,选自芭蕾组曲《火鸟》)
演奏:詹姆斯·德普莱斯特指挥俄勒冈交响乐团

02. Kodaly: Duo for Violin and Cello, Op.7 - Allegro serioso, non troppo (Starker, Recorded in Japan 1978)(科达伊:小提琴与大提琴二重奏)
演奏:Josef Gingold 金戈尔德(小提琴)、Janos Starker 施塔克(大提琴)

03. Dvorak: Symphony No.9 in E Minor, Op.95, From the New World - Allegro con fuoco(德沃夏克:第九交响曲(选))
演奏:兹德涅克·马察尔指挥新泽西交响乐团

04. Bizet/Shchedrin: The Carmen Ballet - ix. Torero(比才/谢德林:斗牛士,选自芭蕾组曲《卡门》)
演奏:詹姆斯·德普莱斯特指挥蒙特卡洛爱乐乐团

05. Hildegard: Vos Flores Rosarum(希尔德加德:玫瑰花开)
演奏及演唱:阿森松之声合唱团及乐团 独唱:亚历山德拉·维斯孔蒂(女高音)

06. Copland: Billy the Kid (suite from the ballet) Gun Battle(科普兰:小伙子比利)
演奏:杰勒德·施瓦茨指挥西雅图交响乐团

07. Vivaldi: Four Seasons - Concerto in E major, RV 269 "Spring" I. Allegro(维瓦尔迪:急板,选自《四季·春》)

08. Piazzolla: Libertango (Tangos arranged for saxophone and orchestra)(皮亚佐拉:探戈册页(改编本:萨克斯和乐队曲))
演奏:康斯坦丁·奥波利安指挥莫斯科室内乐团;费德里科·蒙德里奇(萨克斯)

09. Beethoven: Adagio Cantabile from Sonata Op.13 (Pathetique)(贝多芬:如歌的柔板,选自《悲怆奏鸣曲》)

10. Berlioz: Symphonie Fantastique, Op.14 - Marche au Supplice (March to the Scaffold): Allegretto non troppo(柏辽兹:适度的快板,选自《幻想交响曲·走向断头台》)
演奏:兹德涅克·马察尔指挥新泽西交响乐团

11. Glière: The Red Poppy, Ballet Suite, Op.70 - Heroic Coolie Dance(格利埃:芭蕾组曲《红罂粟花》,英勇的苦力舞曲)
演奏:兹德涅克·马察尔指挥新泽西交响乐团

12. Glière: The Red Poppy, Ballet Suite, Op. 70 - Chinese Dance(格利埃:芭蕾组曲《红罂粟花》,中国舞曲)
演奏:兹德涅克·马察尔指挥新泽西交响乐团

13. Tchaikovsky: Serenade for Strings, Op.48, II. Walzer(柴可夫斯基:弦乐小夜曲)
演奏:康斯坦丁·奥波利安莫斯科室内乐团

14. Shostakovich: Symphony No.10 in E Minor, Op.93 - II. Allegro(肖斯塔科维奇:E小调第十交响曲)
演奏:安德鲁·利顿指挥达拉斯交响乐团

15. Copland: The Red Pony - Happy Ending(科普兰:红马(电影音乐))
演奏:安德鲁·利顿指挥达拉斯交响乐团;韦恩·马歇尔(钢琴)

正在读取……

这里是其它用户补充的资源(我也要补充):

暂无补充资源
正在加载,请稍等...

点击查看所有164网友评论

 

(?) [公告]留口水、评论相关规则 | [活动]每日签到 轻松领取电驴经验

    小贴士:
  1. 类似“顶”、“沙发”之类没有营养的文字,对勤劳贡献的楼主来说是令人沮丧的反馈信息。
  2. 提问之前请再仔细看一遍楼主的说明,或许是您遗漏了。
  3. 勿催片。请相信驴友们对分享是富有激情的,如果确有更新版本,您一定能搜索到。
  4. 请勿到处挖坑绊人、招贴广告。既占空间让人厌烦,又没人会搭理,于人于己都无利。
  5. 如果您发现自己的评论不见了,请参考以上4条。