v

您的位置:VeryCD音乐欧美音乐

音乐资源事务区


Prince -《The Sun The Moon The Stars》(太阳 月亮 星星)引进版[FLAC]

  • 状态: 精华资源
  • 摘要:
    音乐风格摇滚
    发行时间2002年
    地区美国
    语言英语
  • 时间: 2009/02/21 14:24:17 发布 | 2009/02/21 17:56:30 更新
  • 分类: 音乐  欧美音乐 

阿_亮

精华资源: 15

全部资源: 22

相关: 分享到新浪微博   转播到腾讯微博   分享到开心网   分享到人人   分享到QQ空间   订阅本资源RSS更新   美味书签  subtitle
该内容尚未提供权利证明,无法提供下载。
专辑英文名The Sun The Moon The Stars
专辑中文名太阳 月亮 星星
歌手Prince
别名王子乐队
音乐风格摇滚
资源格式FLAC
版本引进版
发行时间2002年
地区美国
语言英语
简介

IPB Image

专辑介绍:

关于Prince:

王子,曾一度以符号代表自己名字,音乐融合骚灵、摇滚、Funky等多种风格,是上世纪八十年代与迈克尔-杰克逊齐名的歌手。这位1958年6月7日出生的音乐奇才,来自明尼苏达州的双子城明尼亚波利,行事、作风、服装怪异。八○年代叱吒歌坛,不仅专辑张张经典、单曲首首流行,全盛时期自创唱片品牌Paisley Park,相关艺人或团体如Vanity 6、Sheila E、The Time、The Family...当时都是王子大家庭(或称王子帮)的一员,还有他伴奏乐队The Revolution里的吉他与键盘手后来离团自组Wendy & Lisa;加上主演“紫雨”、“Under The Cherry Moon”等多部电影使王子的声势鼎沸。

IPB Image

IPB Image

代码
Exact Audio Copy V0.99 prebeta 4 from 23. January 2008

EAC 抓取日志文件从21. 二月 2009, 13:44

PRINCE / The Sun The Moon The Stars

使用驱动器  :SONY    DVD RW DW-Q30A   Adapter: 0  ID: 0

读取模式     : 保护
使用精确流   : 是
废除音频缓冲 : 是
使用 C2 指针 : 是

组合读/写偏移校正              : 0
读取 Lead-In 和 Lead-Out       : 否
用静音填充抓取中丢失偏移的采样 : 是
去除首尾静音块                 : 否
在 CRC 计算中使用了空样本      : 否
已用接口                       : Win NT 及 2000 本地 Win32 接口

所用输出格式   : 用户定义的编码器
已选比特率     : 1024 kBit/s
质量           : 高
添加 ID3 标签  : 否
命令行压缩器   : E:\Program Files\Exact Audio Copy\FLAC\FLAC.EXE
附加命令行参数 : -6 -V -T "ARTIST=%a" -T "TITLE=%t" -T "ALBUM=%g" -T "DATE=%y" -T "TRACKNUMBER=%n" -T "GENRE=%m" -T "COMMENT=%e" %s -o %d


被抓轨 CD 的 TOC

     音轨 |   开始   |   长度   | 起始扇区 | 结尾扇区
    --------------------------------------------------
       1  |  0:00.00 |  4:21.22 |       0  |   19596  
       2  |  4:21.22 |  4:22.24 |   19597  |   39270  
       3  |  8:43.46 |  5:32.02 |   39271  |   64172  
       4  | 14:15.48 |  0:06.15 |   64173  |   64637  
       5  | 14:21.63 |  5:13.24 |   64638  |   88136  
       6  | 19:35.12 |  1:33.37 |   88137  |   95148  
       7  | 21:08.49 |  3:26.35 |   95149  |  110633  
       8  | 24:35.09 |  5:17.49 |  110634  |  134457  
       9  | 29:52.58 |  6:14.55 |  134458  |  162562  
      10  | 36:07.38 |  0:21.12 |  162563  |  164149  
      11  | 36:28.50 |  5:16.52 |  164150  |  187901  
      12  | 41:45.27 |  3:20.74 |  187902  |  202975  
      13  | 45:06.26 |  3:38.12 |  202976  |  219337  
      14  | 48:44.38 |  3:32.15 |  219338  |  235252  
      15  | 52:16.53 |  4:14.67 |  235253  |  254369  
      16  | 56:31.45 |  8:52.54 |  254370  |  294323  
      17  | 65:24.24 |  0:45.72 |  294324  |  297770  
      18  | 66:10.21 |  4:28.52 |  297771  |  317922  


范围状态及错误

已选择范围

     文件名 H:\电驴发布目录\Music\PRINCE.-.The Sun The Moon The Stars\PRINCE - The Sun The Moon The Stars.wav

     峰值电平 100.0 %
     范围质量 100.0 %
     复制 CRC 6566FAB2
     复制成功

没有错误发生

状态报告结尾


代码
REM GENRE "Rock & Roll"
REM DATE 2002
REM DISCID 1B108E12
REM COMMENT "ExactAudioCopy v0.99pb4"
PERFORMER "PRINCE"
TITLE "The Sun The Moon The Stars"
FILE "PRINCE.-.[The.Sun.The.Moon.The.Stars].专辑(FLAC).flac" WAVE
  TRACK 01 AUDIO
    TITLE "Rave Un2 The Joy Fantastic"
    PERFORMER "PRINCE"
    INDEX 01 00:00:00
  TRACK 02 AUDIO
    TITLE "Undisputed"
    PERFORMER "PRINCE"
    INDEX 00 04:21:20
    INDEX 01 04:21:22
  TRACK 03 AUDIO
    TITLE "The Greatest Romance Ever Sold"
    PERFORMER "PRINCE"
    INDEX 00 08:43:44
    INDEX 01 08:43:46
  TRACK 04 AUDIO
    TITLE "Segue"
    PERFORMER "PRINCE"
    INDEX 01 14:15:48
  TRACK 05 AUDIO
    TITLE "Hot Wit U"
    PERFORMER "PRINCE"
    INDEX 01 14:21:63
  TRACK 06 AUDIO
    TITLE "Tangerine"
    PERFORMER "PRINCE"
    INDEX 01 19:35:12
  TRACK 07 AUDIO
    TITLE "So Far,So Pleased"
    PERFORMER "PRINCE"
    INDEX 01 21:08:49
  TRACK 08 AUDIO
    TITLE "The Sun The Moon And Stars"
    PERFORMER "PRINCE"
    INDEX 01 24:35:09
  TRACK 09 AUDIO
    TITLE "Everyday Is A Windding Road"
    PERFORMER "PRINCE"
    INDEX 00 29:52:56
    INDEX 01 29:52:58
  TRACK 10 AUDIO
    TITLE "Segue"
    PERFORMER "PRINCE"
    INDEX 01 36:07:38
  TRACK 11 AUDIO
    TITLE "Man 'O' War"
    PERFORMER "PRINCE"
    INDEX 01 36:28:50
  TRACK 12 AUDIO
    TITLE "Baby Knows"
    PERFORMER "PRINCE"
    INDEX 00 41:45:26
    INDEX 01 41:45:27
  TRACK 13 AUDIO
    TITLE "I Love U,But I Don't Trust U Anymore"
    PERFORMER "PRINCE"
    INDEX 01 45:06:26
  TRACK 14 AUDIO
    TITLE "Silly Game"
    PERFORMER "PRINCE"
    INDEX 01 48:44:38
  TRACK 15 AUDIO
    TITLE "Strange But True"
    PERFORMER "PRINCE"
    INDEX 01 52:16:53
  TRACK 16 AUDIO
    TITLE "Wherever U Go,Whatever U Do"
    PERFORMER "PRINCE"
    INDEX 01 56:31:45
  TRACK 17 AUDIO
    TITLE "UnKnown[Hidden Track]"
    PERFORMER "PRINCE"
    INDEX 01 65:24:24
  TRACK 18 AUDIO
    TITLE "UnKnown[Hidden Track]"
    PERFORMER "PRINCE"
    INDEX 01 66:10:21



专辑曲目

01. Rave Un2 The Joy Fantastic
02. Undisputed
03. The Greatest Romance Ever Sold
04. Segue
05. Hot Wit U
06. Tangerine
07. So Far,So Pleased
08. The Sun The Moon And Stars
09. Everyday Is A Windding Road
10. Segue
11. Man 'O' War
12. Baby Knows
13. I Love U,But I Don't Trust U Anymore
14. Silly Game
15. Strange But True
16. Wherever U Go,Whatever U Do
17. UnKnown[Hidden Track]
18. UnKnown[Hidden Track]

正在读取……

这里是其它用户补充的资源(我也要补充):

暂无补充资源
正在加载,请稍等...

点击查看所有13网友评论

 

(?) [公告]留口水、评论相关规则 | [活动]每日签到 轻松领取电驴经验

    小贴士:
  1. 类似“顶”、“沙发”之类没有营养的文字,对勤劳贡献的楼主来说是令人沮丧的反馈信息。
  2. 提问之前请再仔细看一遍楼主的说明,或许是您遗漏了。
  3. 勿催片。请相信驴友们对分享是富有激情的,如果确有更新版本,您一定能搜索到。
  4. 请勿到处挖坑绊人、招贴广告。既占空间让人厌烦,又没人会搭理,于人于己都无利。
  5. 如果您发现自己的评论不见了,请参考以上4条。