v

您的位置:VeryCD音乐欧美音乐

音乐资源事务区


U2 -《The Best Of 1980-1990》引进版[APE]

  • 状态: 精华资源
  • 摘要:
    音乐风格摇滚
    发行时间1998年11月02日
    地区爱尔兰
    语言英语
  • 时间: 2009/02/21 11:33:20 发布 | 2009/02/21 17:35:19 更新
  • 分类: 音乐  欧美音乐 

阿_亮

精华资源: 15

全部资源: 22

相关: 分享到新浪微博   转播到腾讯微博   分享到开心网   分享到人人   分享到QQ空间   订阅本资源RSS更新   美味书签  subtitle
该内容尚未提供权利证明,无法提供下载。
专辑英文名The Best Of 1980-1990
歌手U2
别名U2乐队
音乐风格摇滚
资源格式APE
版本引进版
发行时间1998年11月02日
地区爱尔兰
语言英语
简介

IPB Image

专辑介绍:

U2这张精选辑《The Best Of 1980-1990/跨世纪精选》狂扫全球1千3百70万张,相较于有些艺人三、四年推出一张精选,无疑的,U2合唱团每十年才选择回顾一次耀眼的成绩,更突显他们与众不同的开阔格局,也是该团屹立乐坛多年声誉不坠的实证。

毫无疑问,U2是80年代英国最受欢迎的摇滚乐团,起源于爱尔兰的U2组合从1977年就开始了他们的音乐生溽,当时乐团主要成员还都在都柏林上中学。其中,Bono (即Paul David Hewson,1960年5月10日出生于都柏林,乐手), The Edge (即David Evans,1961年出生于埃塞克斯,吉他手), Adam Clayton (1960年3月13日出生于英格兰牛津郡,男低音)以及Larry Mullen Jr(即Laurence Mullen,1961年是10月31日出生于都柏林,鼓手)最初一段时间曾演奏过滚石及海难男孩乐队的精典曲目,并为乐队起名为Feedback。后来他们还将名字改为Hype,但最终还是在1978年确定为U2。

同年,在英国的利姆里克市获得选秀比赛的冠军之后,U2被知名的音乐经纪人Paul McGuinness看中,并很快与CBS爱尔兰唱片公司签约。他们的第一张专辑《EP U2:3》中收录的单曲《Out Of Control (1979)》登上了爱尔兰流行歌曲排行榜的榜首,后来U2还以一曲《Another Day (1980)》再次占据排行榜首位。不过这期间他们与CBS英国唱片公司的合同期已到,可以与爱尔兰地区以外的任何唱片公司签约,于是他们成为Island唱片公司旗下的乐队。他们在英国首次推出的单曲《11 O'Clock Tick Tock》由Martin Hannett制作,尽管乐迷的反响良好,但却未能登上排行榜。与此同时,他们的另外两支单曲《A Day Without Me》和《I Will Follow》却销量不佳,但这并未影响他们为推出第一张专辑《Boy》做准备,这张专辑由Steve Lillywhite制作,是对他们自己青年时代的一个纪录,尽管曲风感人而且催人向上,但还是受到了一些乐评人士的指责。这种指责之声随着U2当时在英国全境进行的现场演出而越来越强烈。尽管如此,Bono令人难忘的嗓音以及乐队极富激情的表演还是向世人显示,他们是1981年最有发展潜途的乐队。在前往美国进行巡回演出之后,U2又回到了英国,这时他们的单曲《Fire》已被列入英国流行音乐排行榜的前三十名,另外一支也引起较大反响的单曲是《Gloria》。与此同时,U2新推出的专辑《October》也深受乐迷喜爱,他们为这张专辑赋予了宗教色彩,使其更加具有震撼力。1983年2月,U2凭借单曲《New Year's Day》登上英国流行音乐排行榜前十名,据称这首曲目的主题是希望,是根据波兰团结工会发起的政治运动创作的。这一专辑的主题将宗教与政治冲突有机的结合起来,其主打歌曲《Sunday Bloody Sunday》尤其成为U2乐队最令人难忘的曲目之一。另外一首名为《Under A Blood Red Sky》的单曲也给人留下了深刻的印象,并在英国流行音乐排行榜上名列第二位,这首单曲还首次使U2跻身美国流行音乐排行榜第28名。1984年夏天,U2开始计划进军摇滚歌坛。Bono与Bob Dylan联手首次在后者的音乐会上亮相,同时U2还组建了自己的Mother唱片公司,其宗旨是在爱尔兰发掘更多的音乐新人。其间,由Brian Eno及DanielLanois合作制作的《The Unforgettable Fire》显示出U2乐队已更加成熟,这一单曲使得U2在美国流行音乐排行榜上的位置更加靠前,而且还获得了巨大的商业成功。另外一支单曲《Pride (In The Name Of Love)》更加强烈地显示出U2音乐中独特的激情和人文风格,这种风格已渐渐成为U2的代表风格而为乐迷所熟悉和接受。

U2乐队致力于慈善事业的情怀在他们随后做出的一系列举动中更加明显地反映出来,他们参加了爱尔兰自救运动举行的各种公益活动,与国际大赦组织进行合作,并参与了Little Steven反种族隔离歌曲《Sun City》的演唱。在这同一时期,U2乐队开始了全球巡回演唱之旅,并完成了他们下部专辑的录制工作。这张名为《The Joshua Tree》的专辑在1987年3月推出,它巩固了U2的乐坛地位,使U2成为世界最受欢迎的乐队组合之一。这张专辑在英美连续占据排行榜前列,显示了U2乐队新的更为宽广的声音以及深入人心的抒情旋律。专辑中的两首单曲《With Or Without You》和《I Still Haven't Found What I'm Looking For》共同登上了美国流行音乐排行榜的首位。自这一具有里程碑式的专辑之后,1988年对U2乐队而言是相对平静的一年,Bono与Edge出现在了Roy Orbison执导的影片《神秘女孩》中,而U2乐队演唱的歌曲《Desire》也成为他们第一首在英国获得排名第一的热门单曲。另外由于受到专辑《The Joshua Tree》成功的影响,U2乐队面临着后续推出同样出色专辑的巨大挑战,为此他们花了很长的时间商讨此事。在此期间,U2乐队的成员曾参与了纪念Cole Porter专辑的录制工作,在这张名为《Red Hot + Blue》的专辑中他们演唱了一首节奏很快的歌曲《Night And Day》。1991年底,U2乐队演唱的歌曲《The Fly》入选英国排行榜,并很快成为榜首歌曲,它重复了U2乐队《Desire》单曲的成功。歌曲《Achtung Baby》则延续了U2乐队的音乐风格,它强调了U2在国际摇滚音乐上地位。批评人士虽然仍对Zooropa和侧重舞蹈的Pop进行毫不留情地嘲讽,但U2乐队却是现代摇滚乐领域最受欢迎的乐队之一,他们在体育场的演出总是吸引无数的乐迷。

到了九十年代中期,Bono将他的许多时间花在了歌曲创作方面,他与Edge一起为007影片《黄金眼》创作了插曲。此外在巴黎举行的MTV颁奖典礼上,Bono痛斥了法国总统希拉克,这在当时成为轰动一时的新闻。Bono非常明显对法国所进行的核试验感到十分不安,但他在走上舞台接受颁奖时还面带笑容,他的从容表现欺骗了所有在场的观众,但他随即就抛出了讽刺之词。Bono说:“多好的城市!”(观众喝彩鼓掌),“多好的夜晚”(接着喝彩),“多好的炸弹”(观众有些莫名其妙但爆发出了笑声),“多大的错误”(观众的反应十分困惑),接着Bono说:“你们有个多么总统卑鄙的总统”(零星地爆发出嘘声)。U2乐队1998年重新录制的歌曲《Sweetest Thing》在当时英国热门单曲榜上排名第三,此后U2乐队发行了其首张金曲回顾转辑。2000年3月,Bono为电影《百万英镑旅馆》谱写的插曲正式发行,插曲是U2乐队专门演唱的新歌《The Ground Beneath Her Feet》,歌词由拉什迪所写。这首歌同时被收入了U2乐队的专辑《All That You Can't Leave Behind》,在这张专辑中,U2乐队避开了电声乐器,转而使用了八十年代后期的摇滚风格伴奏。

IPB Image

IPB Image

IPB Image

IPB Image

代码
EAC extraction logfile from  19. February 2009, 16:24 for CD
U2 / The Best of 1980-1990 (Disc 1)

Used drive  : HL-DT-STDVD-ROM GDR8161B   Adapter: 1  ID: 1
Read mode   : Secure with NO C2, accurate stream, disable cache
Read offset correction : 0
Overread into Lead-In and Lead-Out : No

Used output format : Internal WAV Routines
                     44.100 Hz; 16 Bit; Stereo

Other options      :
    Fill up missing offset samples with silence : Yes
    Delete leading and trailing silent blocks : No
    Native Win32 interface for Win NT & 2000


Range status and errors
Selected range
     Filename D:\MusicBurrrnn\DvD ApE FlaC\Pruebas De Rippeo\U2 - The Best of 1980-1990 (Disc 1)\CDImage.wav

     Peak level 100.0 %
     Range quality 100.0 %
     CRC 425E3434
     Copy OK

No errors occured

End of status report


代码
REM GENRE Rock
REM DATE 1998
PERFORMER "U2"
TITLE "The Best of 1980-1990 (Disc 1)"
FILE "U2 - The Best of 1980-1990 (Disc 1).ape" WAVE
  TRACK 01 AUDIO
    TITLE "Pride (In The Name of Love)"
    INDEX 01 00:00:00
  TRACK 02 AUDIO
    TITLE "New Year's Day"
    INDEX 01 03:50:12
  TRACK 03 AUDIO
    TITLE "With or Without You"
    INDEX 01 08:09:00
  TRACK 04 AUDIO
    TITLE "I Still Haven't Found What I'm Looking For"
    INDEX 01 13:07:70
  TRACK 05 AUDIO
    TITLE "Sunday Bloody Sunday"
    INDEX 01 17:48:45
  TRACK 06 AUDIO
    TITLE "Bad"
    INDEX 01 22:30:52
  TRACK 07 AUDIO
    TITLE "Where The Streets Have No Name"
    INDEX 01 28:22:32
  TRACK 08 AUDIO
    TITLE "I Will Follow"
    INDEX 01 32:58:42
  TRACK 09 AUDIO
    TITLE "The Unforgettable Fire"
    INDEX 01 36:36:55
  TRACK 10 AUDIO
    TITLE "Sweetest Thing (The Single Mix)"
    INDEX 01 41:31:62
  TRACK 11 AUDIO
    TITLE "Desire"
    INDEX 01 44:34:60
  TRACK 12 AUDIO
    TITLE "When Love Comes To Town"
    INDEX 01 47:34:42
  TRACK 13 AUDIO
    TITLE "Angel of Harlem"
    INDEX 01 51:52:50
  TRACK 14 AUDIO
    TITLE "All I Want Is You"
    INDEX 01 55:42:60


代码
REM GENRE Rock
REM DATE 1998
PERFORMER "U2"
TITLE "The.Best.Of.1980-1990 (Disc 2)"
FILE "U2 - The.Best.Of.1980-1990 (Disc 2).ape" WAVE
  TRACK 01 AUDIO
    TITLE "The Three Sunrises"
    INDEX 01 00:00:00
  TRACK 02 AUDIO
    TITLE "Spanish Eyes"
    INDEX 01 03:54:52
  TRACK 03 AUDIO
    TITLE "Sweetest Thing"
    INDEX 01 07:11:22
  TRACK 04 AUDIO
    TITLE "Love Comes Tumbling"
    INDEX 01 10:16:22
  TRACK 05 AUDIO
    TITLE "Bass Trap"
    INDEX 01 14:58:65
  TRACK 06 AUDIO
    TITLE "Dancing Barefoot"
    INDEX 01 18:32:05
  TRACK 07 AUDIO
    TITLE "Everlasting Love"
    INDEX 01 23:19:65
  TRACK 08 AUDIO
    TITLE "Unchained Melody"
    INDEX 01 26:42:30
  TRACK 09 AUDIO
    TITLE "Walk To The Water"
    INDEX 01 31:36:35
  TRACK 10 AUDIO
    TITLE "Luminous Times (Hold On To Love)"
    INDEX 01 36:25:47
  TRACK 11 AUDIO
    TITLE "Hallelujah Here She Comes"
    INDEX 01 41:03:22
  TRACK 12 AUDIO
    TITLE "Silver And Gold"
    INDEX 01 45:05:42
  TRACK 13 AUDIO
    TITLE "Endless Deep"
    INDEX 01 49:45:25
  TRACK 14 AUDIO
    TITLE "A Room At The Heartbreak Hotel"
    INDEX 01 52:45:10
  TRACK 15 AUDIO
    TITLE "Trash, Trampoline And The Party Girl"
    INDEX 01 57:19:45




专辑曲目

Disc 1:

01. Pride (In The Name Of Love)
02. New Year's Day
03. With Or Without You
04. I Still Haven't Found What I'm Looking For
05. Sunday Bloody Sunday
06. Bad
07. Where The Streets Have No Name
08. I Will Follow
09. The Unforgettable Fire
10. Sweetest Thing (The Single Mix)
11. Desire
12. When Love Comes To Town
13. Angel Of Harlem
14. All I Want Is You

Disc 2:

01. The Three Sunrises
02. Spanish Eyes
03. Sweetest Thing
04. Love Comes Tumbling
05. Bass Trap
06. Dancing Barefoot
07. Everlasting Love
08. Unchained Melody
09. Walk To The Water
10. Luminous Times (Hold On To Love)
11. Hallelujah Here She Comes
12. Silver And Gold
13. Endless Deep
14. A Room At The Heartbreak Hotel
15.Trash, Trampoline And The Party Girl

正在读取……

这里是其它用户补充的资源(我也要补充):

青鸟季 2010/03/11 17:17:14 补充
引用(sleepdrop @ 2009-02-21, 06:17 PM) 第一张少了首Octobor?还是hidden在14首后了?我有这张

该内容尚未提供权利证明,无法提供下载。
正在加载,请稍等...

点击查看所有88网友评论

 

(?) [公告]留口水、评论相关规则 | [活动]每日签到 轻松领取电驴经验

    小贴士:
  1. 类似“顶”、“沙发”之类没有营养的文字,对勤劳贡献的楼主来说是令人沮丧的反馈信息。
  2. 提问之前请再仔细看一遍楼主的说明,或许是您遗漏了。
  3. 勿催片。请相信驴友们对分享是富有激情的,如果确有更新版本,您一定能搜索到。
  4. 请勿到处挖坑绊人、招贴广告。既占空间让人厌烦,又没人会搭理,于人于己都无利。
  5. 如果您发现自己的评论不见了,请参考以上4条。