v

您的位置:VeryCD音乐欧美音乐

音乐资源事务区


U2 -《Zooropa》(索罗巴)引进版[FLAC]

  • 状态: 精华资源
  • 摘要:
    音乐风格摇滚
    发行时间1993年
    语言英语
  • 时间: 2009/02/17 19:46:10 发布 | 2009/02/21 17:09:13 更新
  • 分类: 音乐  欧美音乐 

阿_亮

精华资源: 15

全部资源: 22

相关: 分享到新浪微博   转播到腾讯微博   分享到开心网   分享到人人   分享到QQ空间   订阅本资源RSS更新   美味书签  subtitle
该内容尚未提供权利证明,无法提供下载。
专辑英文名Zooropa
专辑中文名索罗巴
歌手U2
别名U2乐队
音乐风格摇滚
资源格式FLAC
版本引进版
发行时间1993年
语言英语
简介

IPB Image

专辑介绍:

《Zooropa》一般被认为是U2走下坡路的开始。这只由四个从小玩到大的街头哥儿们组成的爱尔兰摇滚组合自1978年成军之后,一直遵循着2-3年出一张专辑,然后花2年来巡演的惯例,这支有着类似Bruce Springsteen草根气质的乐队却有着类似David Bowie那样华丽的天份,吉他手theEdge被认为是最具有个性的吉他大师之一,他十分喜欢电声吉他高音部分的穿透力,所以他的吉他是没有最低的两根弦的 -_-bb,这也成了U2配器中最具特征的部分,主唱Bono的词作既有革命的力量又有诗人的优雅,这在80年代以后都是不多见的。乐队早先就出过《War》、《October》、《Under the Bloody Sky》等出色的专辑,1987年和1990年更是依靠《The Joshua Tree》和《Achtung Baby》两张横扫英美的专辑成为殿堂级乐队,但是接下来1993年的《Zooropa》居然一首冠军单曲都没有,可谓失败已极。但是我却认为《Zooropa》具有它独特的魅力,甚至可以看作和《The Joshua Tree》一样伟大的专辑。

现在看来,《Zooropa》失败的原因很简单,就是音乐过于电子化而内容过于内省,失去了先前U2赖以成名的那种气势——U2的音乐常被人冠以“人民的严肃之声”(serious voice from the people)——但是想想,进入90年代,这帮哥儿几个都是奔40的人了,还在那呐喊革命?这个岁数的Beatles已经在唱“You say you want a revolution... Don't you know you can count me out”了。其实,Bono们在1990年出《Achtung Baby》的时候已经跟之前很不同了,只不过U2当时如日中天的名声和专辑中几首单曲造就了巨大的商业成功,而整张专辑的实验和概念味儿也很讨评论家的好,凡是听过《The Joshua Tree》和《Achtung Baby》的人都知道,这哥儿几个早就憋着要反了,最后明知道可能要挂,还是义无反顾的走向了《Zooropa》。

10年之后年近三十的我再次细细的品味《Zooropa》,更加能够体味其中的可贵。《Zooropa》诞生于欧洲统一进程的关键阶段,这个专辑名(也是专辑第一首歌的名字)明显是Zoo和Europe两个词的组合,所有有人翻译为“欧共体动物园”,虽然比较俗了,但是也还算过得去。而整张专辑充满了对古老欧洲的回响,和对新欧洲既好奇又调侃的心态。“欧洲的理想”在这里成了一个周末游园会般的娱乐节目。专辑中乐队对于吉他、人声、键盘、鼓的控制也是恰到好处,既有《Stay》中那种慵懒的鼓点,也有《Zooropa》中U2招牌式的高亢吉他,而在《Lemon》中Bono的假声、《Numb》中第一次出声的theEdge、《Daday's Gonna Pay For Your Crashed Car》的电子舞曲让你感觉到乐队求新的强烈欲望,当然U2也没有忘记让一直热爱他们的拥趸寂寞,一曲《Some Days Are Better Than Others》让你可以回味《The Joshua Tree》中的感觉——不过Bono用他着意变得内敛的演绎提醒你U2已经走过了超过25个年头!这首歌中的腔调直到跨入新世纪U2出版他们的新单曲《Electrical Storm》和《Beautiful Day》时还可以感觉得到。

IPB Image

IPB Image

IPB Image

代码
Exact Audio Copy V0.99 prebeta 4 from 23. January 2008

EAC 抓取日志文件从21. 二月 2009, 12:36

U2 / Zooropa

使用驱动器  :SONY    DVD RW DW-Q30A   Adapter: 0  ID: 0

读取模式     : 保护
使用精确流   : 是
废除音频缓冲 : 是
使用 C2 指针 : 是

组合读/写偏移校正              : 0
读取 Lead-In 和 Lead-Out       : 否
用静音填充抓取中丢失偏移的采样 : 是
去除首尾静音块                 : 否
在 CRC 计算中使用了空样本      : 否
已用接口                       : Win NT 及 2000 本地 Win32 接口

所用输出格式   : 用户定义的编码器
已选比特率     : 768 kBit/s
质量           : 高
添加 ID3 标签  : 否
命令行压缩器   : E:\Program Files\Exact Audio Copy\FLAC\FLAC.EXE
附加命令行参数 : -6 -V -T "ARTIST=%a" -T "TITLE=%t" -T "ALBUM=%g" -T "DATE=%y" -T "TRACKNUMBER=%n" -T "GENRE=%m" -T "COMMENT=%e" %s -o %d


被抓轨 CD 的 TOC

     音轨 |   开始   |   长度   | 起始扇区 | 结尾扇区
    --------------------------------------------------
       1  |  0:00.00 |  4:59.65 |       0  |   22489  
       2  |  4:59.65 |  6:57.55 |   22490  |   53819  
       3  | 11:57.45 |  4:21.72 |   53820  |   73466  
       4  | 16:19.42 |  4:02.10 |   73467  |   91626  
       5  | 20:21.52 |  6:32.23 |   91627  |  121049  
       6  | 26:54.00 |  5:23.15 |  121050  |  145289  
       7  | 32:17.15 |  4:17.25 |  145290  |  164589  
       8  | 36:34.40 |  3:45.65 |  164590  |  181529  
       9  | 40:20.30 |  5:25.25 |  181530  |  205929  
      10  | 45:45.55 |  4:44.00 |  205930  |  227229  


范围状态及错误

已选择范围

     文件名 H:\电驴发布目录\Music\U2_Zooropa\U2 - Zooropa.wav

     峰值电平 100.0 %
     范围质量 100.0 %
     复制 CRC 2C309200
     复制成功

没有错误发生

状态报告结尾


代码
REM GENRE "Rock & Roll"
REM DATE 1993
REM DISCID 850BD50A
REM COMMENT "ExactAudioCopy v0.99pb4"
PERFORMER "U2"
TITLE "Zooropa"
FILE "U2.-.[Zooropa].专辑.(FLAC).FLAC" WAVE
  TRACK 01 AUDIO
    TITLE "Stay (Faraway, So Close!) 留下"
    PERFORMER "U2"
    INDEX 01 00:00:00
  TRACK 02 AUDIO
    TITLE "Lemon 柠檬色"
    PERFORMER "U2"
    INDEX 00 04:58:12
    INDEX 01 04:59:65
  TRACK 03 AUDIO
    TITLE "Numb 麻木"
    PERFORMER "U2"
    INDEX 00 11:56:05
    INDEX 01 11:57:45
  TRACK 04 AUDIO
    TITLE "Babyface 贝贝菲丝"
    PERFORMER "U2"
    INDEX 00 16:16:48
    INDEX 01 16:19:42
  TRACK 05 AUDIO
    TITLE "Zooropa 索罗巴"
    PERFORMER "U2"
    INDEX 00 20:19:69
    INDEX 01 20:21:52
  TRACK 06 AUDIO
    TITLE "Daddy's Gonna Pay For Your Crashed Car 爸爸替你付修车费"
    PERFORMER "U2"
    INDEX 00 26:51:55
    INDEX 01 26:54:00
  TRACK 07 AUDIO
    TITLE "Some Days Are Better Than Others 有些日子比别的好"
    PERFORMER "U2"
    INDEX 00 32:14:09
    INDEX 01 32:17:15
  TRACK 08 AUDIO
    TITLE "The First Time 第一次"
    PERFORMER "U2"
    INDEX 00 36:32:41
    INDEX 01 36:34:40
  TRACK 09 AUDIO
    TITLE "Dirty Day 肮脏的日子"
    PERFORMER "U2"
    INDEX 00 40:20:16
    INDEX 01 40:20:30
  TRACK 10 AUDIO
    TITLE "The Wanderer 我走在布满金子的大街上"
    PERFORMER "U2"
    INDEX 00 45:43:19
    INDEX 01 45:45:55



专辑曲目

01. Stay (Faraway, So Close!) 留下
02. Lemon 柠檬色
03. Numb 麻木
04. Babyface 贝贝菲丝
05. Zooropa 索罗巴
06. Daddy's Gonna Pay For Your Crashed Car 爸爸替你付修车费
07. Some Days Are Better Than Others 有些日子比别的好
08. The First Time 第一次
09. Dirty Day 肮脏的日子
10. The Wanderer 我走在布满金子的大街上

正在读取……

这里是其它用户补充的资源(我也要补充):

暂无补充资源
正在加载,请稍等...

点击查看所有22网友评论

 

(?) [公告]留口水、评论相关规则 | [活动]每日签到 轻松领取电驴经验

    小贴士:
  1. 类似“顶”、“沙发”之类没有营养的文字,对勤劳贡献的楼主来说是令人沮丧的反馈信息。
  2. 提问之前请再仔细看一遍楼主的说明,或许是您遗漏了。
  3. 勿催片。请相信驴友们对分享是富有激情的,如果确有更新版本,您一定能搜索到。
  4. 请勿到处挖坑绊人、招贴广告。既占空间让人厌烦,又没人会搭理,于人于己都无利。
  5. 如果您发现自己的评论不见了,请参考以上4条。