v

您的位置:VeryCD音乐欧美音乐

音乐资源事务区


U2 -《October》[OGG][FLAC]

  • 状态: 精华资源
  • 摘要:
    音乐风格摇滚
    发行时间1981年01月01日
    地区爱尔兰
    语言英语
  • 时间: 2009/02/11 14:17:57 发布 | 2009/02/12 23:21:17 更新
  • 分类: 音乐  欧美音乐 

灵魂行者

精华资源: 3

全部资源: 4

相关: 分享到新浪微博   转播到腾讯微博   分享到开心网   分享到人人   分享到QQ空间   订阅本资源RSS更新   美味书签  subtitle
该内容尚未提供权利证明,无法提供下载。
专辑英文名October
歌手U2
音乐风格摇滚
资源格式FLAC
版本[OGG]
发行时间1981年01月01日
地区爱尔兰
语言英语
简介

IPB Image

唱片公司:Island Records(环球唱片)
<DISCID>:A309A30B
专辑风格:Rock
OGG压缩码率:
Q6=192K

专辑介绍:

《October》是U2的“少年狂想曲”的第二乐章,在这张专辑里Edge独特一新的吉他音色和和弦都让给人耳目一新的感觉,特别是糅合了爱尔兰独特的Cletic音乐元素,使他们的音乐既不同于当时的Post Punk,也非同于流行的HardRock,这几乎在后来成了每一个爱尔兰乐队让世界记住自己名字的捷径。

专辑介绍来自Google - 谷歌音乐

1981年10月 排行榜最高位置
英国:11
美国:104

这张专辑是在众多打口碟中选出的没打上口的极品,2000年以前购买到的,收藏多年,突然发现没有VC没有本碟无损格式发布,所以制作FLAC,给各位U2的Fans 共享出来。虽然碟子已经很难买到了,不过经典的音乐还是要收藏的。黑色的盘面,看上去很帅吧,哈哈。

供源时间: 晚 18:00——次日7:30

IPB Image
IPB Image
IPB Image

U2乐队简介:
成员:
Bono:红色吉他,三和弦,主唱。
The Edge:吉他,钢琴,键盘,主唱。
Larry Mullen:鼓,打击,偶尔主唱。
Adam Clayton:低音吉他,贝司,偶尔演奏吉他。
成立时间:1976
成立地点:爱尔兰,都柏林。
乐队成员:The Edge,Bono,Adam Clayton,Larry Mullen, Jr.
乐队风格:Post-Punk(后朋克), Pop/Rock(流行摇滚), Alternative Pop/Rock(非主流另类流行摇滚)。

引用
Exact Audio Copy V0.99 prebeta 4 from 23. January 2008

EAC 抓取日志文件从11. 二月 2009, 13:55

U2 / October

使用驱动器 :LITE-ON DVDRW SHW-1635S Adapter: 0 ID: 1

读取模式 : 快速

组合读/写偏移校正 : 0
读取 Lead-In 和 Lead-Out : 否
用静音填充抓取中丢失偏移的采样 : 是
去除首尾静音块 : 否
在 CRC 计算中使用了空样本 : 否
已用接口 : Win NT 及 2000 本地 Win32 接口

所用输出格式 : 用户定义的编码器
已选比特率 : 768 kBit/s
质量 : 高
添加 ID3 标签 : 否
命令行压缩器 : H:\杨\soft\Exact Audio Copy\Flac\flac.exe
附加命令行参数 : -6 -V -T "ARTIST=%a" -T "TITLE=%t" -T "ALBUM=%g" -T "DATE=%y" -T "TRACKNUMBER=%n" -T "GENRE=%m" -T "COMMENT=%e" %s -o %d


被抓轨 CD 的 TOC

音轨 | 开始 | 长度 | 起始扇区 | 结尾扇区
--------------------------------------------------
1 | 0:00.32 | 4:12.00 | 32 | 18931
2 | 4:12.32 | 3:39.50 | 18932 | 35406
3 | 7:52.07 | 4:54.38 | 35407 | 57494
4 | 12:46.45 | 3:38.10 | 57495 | 73854
5 | 16:24.55 | 3:50.72 | 73855 | 91176
6 | 20:15.52 | 4:39.28 | 91177 | 112129
7 | 24:55.05 | 2:20.67 | 112130 | 122696
8 | 27:15.72 | 4:02.43 | 122697 | 140889
9 | 31:18.40 | 3:57.70 | 140890 | 158734
10 | 35:16.35 | 2:52.05 | 158735 | 171639
11 | 38:08.40 | 2:59.20 | 171640 | 185084


范围状态及错误

已选择范围

文件名 C:\Documents and Settings\Administrator\桌面\U2 - October.wav

峰值电平 100.0 %
复制 CRC 117EB151
复制成功

没有错误发生

状态报告结尾



专辑曲目

1. Gloria
2. I Fall Down
3. I Threw A Brick Through A Window
4. Rejoice
5. Fire
6. Tomorrow
7. October
8. With A Shout
9. Stranger In A Strange Land
10. Scarlet
11. Is That All?

正在读取……

这里是其它用户补充的资源(我也要补充):

暂无补充资源
正在加载,请稍等...

点击查看所有30网友评论

 

(?) [公告]留口水、评论相关规则 | [活动]每日签到 轻松领取电驴经验

    小贴士:
  1. 类似“顶”、“沙发”之类没有营养的文字,对勤劳贡献的楼主来说是令人沮丧的反馈信息。
  2. 提问之前请再仔细看一遍楼主的说明,或许是您遗漏了。
  3. 勿催片。请相信驴友们对分享是富有激情的,如果确有更新版本,您一定能搜索到。
  4. 请勿到处挖坑绊人、招贴广告。既占空间让人厌烦,又没人会搭理,于人于己都无利。
  5. 如果您发现自己的评论不见了,请参考以上4条。