v

您的位置:VeryCD音乐欧美音乐

音乐资源事务区


Count Basie -《The Complete Atomic Basie》[APE]

  • 状态: 精华资源
  • 摘要:
    音乐风格爵士
    发行时间1994年05月31日
    地区美国
    语言英语
  • 时间: 2009/02/10 21:10:56 发布 | 2009/02/11 10:03:10 更新
  • 分类: 音乐  欧美音乐 

liulidao

精华资源: 10

全部资源: 10

相关: 分享到新浪微博   转播到腾讯微博   分享到开心网   分享到人人   分享到QQ空间   订阅本资源RSS更新   美味书签  subtitle
该内容尚未提供权利证明,无法提供下载。
专辑英文名The Complete Atomic Basie
歌手Count Basie
音乐风格爵士
资源格式APE
发行时间1994年05月31日
地区美国
语言英语
简介

IPB Image

唱片公司: Blue Note Records
音乐流派: Jazz


专辑介绍:

大乐团领班兼钢琴手贝西伯爵发迹於堪萨斯市,并以令人兴奋鼓舞的节奏特质深受好评。在他的乐团中牰位乐手都拥有一身绝技,从节奏组到铜管组、集体即兴至个别即兴,大小编制的弹性灵活运用使得手足以充份发挥最具魅力的摆热情。具西伯爵对速度掌控要求完美无缺,这不让乐手时可以尽兴,另一方面整体和谐度也不至於破坏。
  
  当一九五七年贝西伯爵第一次为Roulette唱片公司灌录这个录音时,他为求好心切特别以 Neal Hefti的作品与新编曲手法。没想到唱车大获畅销之外,贝西的声誉也再次登上高峰。典型的铜管活力经Neal的编曲,就像蓄势待发的队伍,一下子就掳获人心。十一首精心调配的摇摆乐曲中,几乎把大乐团所能表现的极致美感彻底释放。尤其是贝西伯爵过去较少见的抒情作品在这里却有“Whirly-Bird” 和“Li’l Darlin”的绝抄编排。此外,本辑还特别把五首当初未收绿的乐曲─并发表。由於其中三首编曲工作由吉米蒙第担任,正好可比较两者的不同风情与个性。这也是摇摆乐迷不可错过的经典名盘之一。

引用
PERFORMER "Count Basie"
TITLE "The Complete Atomic Basie"
FILE "CDImage.ape" WAVE
TRACK 01 AUDIO
TITLE "The Kid From Red Bank"
PERFORMER "Count Basie"
INDEX 00 00:00:00
INDEX 01 00:00:32
TRACK 02 AUDIO
TITLE "Duet"
PERFORMER "Count Basie"
INDEX 00 02:39:70
INDEX 01 02:42:22
TRACK 03 AUDIO
TITLE "After Supper"
PERFORMER "Count Basie"
INDEX 00 06:52:22
INDEX 01 06:54:17
TRACK 04 AUDIO
TITLE "Flight Of The Foo Birds"
PERFORMER "Count Basie"
INDEX 00 10:18:15
INDEX 01 10:20:27
TRACK 05 AUDIO
TITLE "Double-O"
PERFORMER "Count Basie"
INDEX 00 13:42:35
INDEX 01 13:44:05
TRACK 06 AUDIO
TITLE "Teddy The Toad"
PERFORMER "Count Basie"
INDEX 00 16:28:32
INDEX 01 16:30:52
TRACK 07 AUDIO
TITLE "Whirly-Bird"
PERFORMER "Count Basie"
INDEX 00 19:47:72
INDEX 01 19:49:62
TRACK 08 AUDIO
TITLE "Midnite Blue"
PERFORMER "Count Basie"
INDEX 00 23:39:07
INDEX 01 23:40:72
TRACK 09 AUDIO
TITLE "Splanky"
PERFORMER "Count Basie"
INDEX 00 28:06:60
INDEX 01 28:09:17
TRACK 10 AUDIO
TITLE "Fantail"
PERFORMER "Count Basie"
INDEX 00 31:43:57
INDEX 01 31:45:37
TRACK 11 AUDIO
TITLE "Li'l Darlin'"
PERFORMER "Count Basie"
INDEX 00 34:39:72
INDEX 01 34:41:55
TRACK 12 AUDIO
TITLE "Silks And Satins (Bonustrack)"
PERFORMER "Count Basie"
INDEX 00 39:30:27
INDEX 01 39:32:27
TRACK 13 AUDIO
TITLE "Sleepwalker's Serenade (Alternative Take) Bonustrack"
PERFORMER "Count Basie"
INDEX 00 43:35:70
INDEX 01 43:37:42
TRACK 14 AUDIO
TITLE "Sleepwalker's Serenade (Bonustrack)"
PERFORMER "Count Basie"
INDEX 00 47:12:32
INDEX 01 47:14:15
TRACK 15 AUDIO
TITLE "The Late Late Show (Bonustrack)"
PERFORMER "Count Basie"
INDEX 00 50:51:10
INDEX 01 50:52:72
TRACK 16 AUDIO
TITLE "The Late Late Show (Vocal Version) Bonustrack"
PERFORMER "Count Basie"
INDEX 00 53:42:60
INDEX 01 53:44:40



专辑曲目

01. The Kid From Red Bank
02. Duet
03. After Supper
04. Flight Of The Foo Birds
05. Double-o
06. Teddy The Toad
07. Whirly-bird
08. Midnite Blue
09. Splanky
10. Fantail
11. Li'l Darlin'
12. Silks And Satins
13. Sleepwalker's Serenade (alternate Take)
14. Sleepwalker's Serenade
15. The Late Late Show
16. The Late Late Show (vocal Version)

正在读取……

这里是其它用户补充的资源(我也要补充):

暂无补充资源
正在加载,请稍等...

点击查看所有12网友评论

 

(?) [公告]留口水、评论相关规则 | [活动]每日签到 轻松领取电驴经验

    小贴士:
  1. 类似“顶”、“沙发”之类没有营养的文字,对勤劳贡献的楼主来说是令人沮丧的反馈信息。
  2. 提问之前请再仔细看一遍楼主的说明,或许是您遗漏了。
  3. 勿催片。请相信驴友们对分享是富有激情的,如果确有更新版本,您一定能搜索到。
  4. 请勿到处挖坑绊人、招贴广告。既占空间让人厌烦,又没人会搭理,于人于己都无利。
  5. 如果您发现自己的评论不见了,请参考以上4条。