v

您的位置:VeryCD音乐欧美音乐

音乐资源事务区


Annekei -《Tsuki》[APE]

  • 状态: 精华资源
  • 摘要:
    音乐风格爵士
    发行时间2007年
    地区丹麦
    语言英语
  • 时间: 2009/02/07 21:55:56 发布 | 2009/02/10 20:52:05 更新
  • 分类: 音乐  欧美音乐 

RUIJIN

精华资源: 29

全部资源: 29

相关: 分享到新浪微博   转播到腾讯微博   分享到开心网   分享到人人   分享到QQ空间   订阅本资源RSS更新   美味书签  subtitle
该内容尚未提供权利证明,无法提供下载。
专辑英文名Tsuki
歌手Annekei
音乐风格爵士
资源格式APE
发行时间2007年
地区丹麦
语言英语
简介

IPB Image

专辑介绍:

19岁那年,Annekei离开了她的家乡丹麦,来到美国纽约追逐她的音乐梦想。从2002 年开始,她便开始在纽约的各个演出场所表演,这位年轻的灵乐歌手在Metropolitan Café、Rockwood Music Hall、Bowery Poetry Club、Blue Note等著名演唱地点都留下了足迹。2003年,Annekei参加了一个业余歌手的TV show比赛“Showtime at The Apollo”,并且最终打入决赛,这次比赛也让她的作品“Close Your Eyes”受到了一些关注。

2006 年,Annekei签约了日本的厂牌“Being Records”,并在同年9月发布了首张专辑《Annekei》。这张专辑里的单曲“Brother”大受欢迎,帮助这张专辑在日本唱片排行榜的第4位停留了两周,也在日本的iTunes商店上销量前茅,这样的成绩使Annekei在AD LIB 2006获得了“最佳国外新人”的头衔。伴随着这种上升的势头,Annekei开始在日本巡演,并且在2007年发行了第二张专辑《Tsuki》,这张专辑使她的音乐开始被全亚洲接受。

资源来自:

引用
Exact Audio Copy V0.99 prebeta 4 from 23. January 2008

EAC extraction logfile from 2. October 2008, 16:13

Annekei / Tsuki

Used drive : PLEXTOR CD-R PREMIUM Adapter: 1 ID: 0

Read mode : Secure
Utilize accurate stream : Yes
Defeat audio cache : Yes
Make use of C2 pointers : No

Read offset correction : 30
Overread into Lead-In and Lead-Out : No
Fill up missing offset samples with silence : Yes
Delete leading and trailing silent blocks : No
Null samples used in CRC calculations : Yes
Used interface : Native Win32 interface for Win NT &2000

Used output format : Internal WAV Routines
Sample format : 44.100 Hz; 16 Bit; Stereo


TOC of the extracted CD

Track | Start | Length | Start sector | End sector
---------------------------------------------------------
1 | 0:00.00 | 4:31.67 | 0 | 20391
2 | 4:31.67 | 3:17.68 | 20392 | 35234
3 | 7:49.60 | 4:46.55 | 35235 | 56739
4 | 12:36.40 | 3:49.58 | 56740 | 73972
5 | 16:26.23 | 4:52.59 | 73973 | 95931
6 | 21:19.07 | 4:48.21 | 95932 | 117552
7 | 26:07.28 | 4:15.20 | 117553 | 136697
8 | 30:22.48 | 3:35.51 | 136698 | 152873
9 | 33:58.24 | 3:46.52 | 152874 | 169875
10 | 37:45.01 | 5:12.06 | 169876 | 193281
11 | 42:57.07 | 3:59.70 | 193282 | 211276
12 | 46:57.02 | 4:23.49 | 211277 | 231050
13 | 51:20.51 | 3:00.12 | 231051 | 244562


Range status and errors

Selected range

Filename H:\Annekei - Tsuki.wav

Peak level 99.7 %
Range quality 100.0 %
Copy CRC E89686C7
Copy OK

No errors occurred

End of status report



专辑曲目

01. Tsuki
02. That's All
03. Arigato Gozaimasu
04. Only You
05. Both Sides Now
06. Dirt In Your Pocket
07. Everly
08. Why?
09. Refill Of Inspiration
10. What You Like
11. What Is Your Problem?
12. Towani
13. At Home

正在读取……

这里是其它用户补充的资源(我也要补充):

暂无补充资源
正在加载,请稍等...

点击查看所有65网友评论

该资源评论已被关闭