v

您的位置:VeryCD音乐华语音乐

音乐资源事务区


周杰伦(Jay) -《八度空间》[APE]

  • 状态: 精华资源
  • 摘要:
    音乐风格流行
    发行时间2002年7月13日
    地区香港
    语言普通话
  • 时间: 2009/02/02 17:39:06 发布 | 2009/02/03 12:08:33 更新
  • 分类: 音乐  华语音乐 

时光炫

精华资源: 24

全部资源: 24

相关: 分享到新浪微博   转播到腾讯微博   分享到开心网   分享到人人   分享到QQ空间   订阅本资源RSS更新   美味书签  subtitle
该内容尚未提供权利证明,无法提供下载。
专辑中文名八度空间
音乐风格流行
资源格式APE
发行时间2002年7月13日
地区香港
语言普通话
简介

IPB Image

专辑简介:

周杰伦的第三张大碟《八度空间》强势出击!《八度空间》,顾名思义,今趟Jay的歌曲及演绎,再加上方文山的绝妙歌词,以八个不同的音乐空间、10首不同风格的新歌,去笼罩著你整个音乐世界,带领你游历非一般的音乐空间。 打头阵的主打歌“最后的战役”亦来势汹汹!该歌曲本来为荷里活电影《Windtalkers》(译︰烈血追风)而谱出的,但由于双方时间上未能配合,合作计划因而告吹。想一睹这场“最后的战役”的伟大场面﹖随大碟附送的VCD收录了主打歌的电影版video track和music video,以及“杰伦的大兵秘辛日记”。

CUE文件:

PERFORMER "周杰伦"
TITLE "八度空间"
REM GENRE R&B
REM DATE 2002
REM DISCID 730A1F0A
REM COMMENT "ExactAudioCopy v0.99pb4"
FILE "周杰伦.-.[八度空间]专辑.(APE).ape" WAVE
TRACK 01 AUDIO
TITLE "半兽人"
PERFORMER "周杰伦"
INDEX 01 00:00:00
TRACK 02 AUDIO
TITLE "半岛铁盒"
PERFORMER "周杰伦"
INDEX 01 04:05:30
TRACK 03 AUDIO
TITLE "暗号"
PERFORMER "周杰伦"
INDEX 01 09:22:60
TRACK 04 AUDIO
TITLE "龙拳"
PERFORMER "周杰伦"
INDEX 00 13:51:36
INDEX 01 13:52:42
TRACK 05 AUDIO
TITLE "火车叨位去"
PERFORMER "周杰伦"
INDEX 01 18:25:10
TRACK 06 AUDIO
TITLE "分裂"
PERFORMER "周杰伦"
INDEX 01 22:59:10
TRACK 07 AUDIO
TITLE "爷爷泡的茶"
PERFORMER "周杰伦"
INDEX 01 27:11:57
TRACK 08 AUDIO
TITLE "回到过去"
PERFORMER "周杰伦"
INDEX 00 31:09:12
INDEX 01 31:10:20
TRACK 09 AUDIO
TITLE "米兰的小铁匠"
PERFORMER "周杰伦"
INDEX 01 35:01:55
TRACK 10 AUDIO
TITLE "最后的战役"
PERFORMER "周杰伦"
INDEX 01 39:00:25



专辑曲目

01. 半兽人
02. 半岛铁盒
03. 暗号
04. 龙拳
05. 火车叨位去
06. 分裂(离开)
07. 爷爷泡的茶
08. 回到过去
09. 米兰的小铁匠
10. 最后的战役

正在读取……

这里是其它用户补充的资源(我也要补充):

暂无补充资源
正在加载,请稍等...

点击查看所有202网友评论

 

(?) [公告]留口水、评论相关规则 | [活动]每日签到 轻松领取电驴经验

    小贴士:
  1. 类似“顶”、“沙发”之类没有营养的文字,对勤劳贡献的楼主来说是令人沮丧的反馈信息。
  2. 提问之前请再仔细看一遍楼主的说明,或许是您遗漏了。
  3. 勿催片。请相信驴友们对分享是富有激情的,如果确有更新版本,您一定能搜索到。
  4. 请勿到处挖坑绊人、招贴广告。既占空间让人厌烦,又没人会搭理,于人于己都无利。
  5. 如果您发现自己的评论不见了,请参考以上4条。