v

您的位置:VeryCD音乐欧美音乐

音乐资源事务区


Various Artists -《Saturday Afternoon Jazz》[FLAC]

  • 状态: 精华资源
  • 摘要:
    音乐风格爵士
    发行时间2000年
    地区美国
    语言英语
  • 时间: 2009/01/12 20:54:39 发布 | 2009/01/12 21:58:00 更新
  • 分类: 音乐  欧美音乐 

xiaopanghrb

精华资源: 14

全部资源: 14

相关: 分享到新浪微博   转播到腾讯微博   分享到开心网   分享到人人   分享到QQ空间   订阅本资源RSS更新   美味书签  subtitle
该内容尚未提供权利证明,无法提供下载。
专辑英文名Saturday Afternoon Jazz
音乐风格爵士
资源格式FLAC
发行时间2000年
地区美国
语言英语
简介

IPB Image

专辑介绍:

著名的爵士乐厂牌协和爵士(Concord Records.)出品的爵士乐精选集。按照风格结集出版,每张专辑既有经典人声,也有纯演奏作品。涵盖诸多大师多年力作,实为爵士乐迷入门、进阶佳品,也适合普通听众在夜阑人静时欣赏。全套有十多张。本辑为《Saturday Afternoon Jazz》,或译做《周六午后》。

http://ecx.images-amazon.com/images/I/41w2I%2BkDw8L._SS400_.jpg

代码

Exact Audio Copy V0.99 prebeta 4 from 23. January 2008

EAC 抓取日志文件从11. 一月 2009, 22:37

Various / Saturday Afternoon Jazz

使用驱动器  :TEAC    CD-W524E   Adapter: 0  ID: 1

读取模式     : 保护
使用精确流   : 是
废除音频缓冲 : 否
使用 C2 指针 : 否

组合读/写偏移校正              : 0
读取 Lead-In 和 Lead-Out       : 否
用静音填充抓取中丢失偏移的采样 : 是
去除首尾静音块                 : 否
在 CRC 计算中使用了空样本      : 是
已用接口                       : 已安装外部 ASPI 接口

所用输出格式   : 用户定义的编码器
已选比特率     : 768 kBit/s
质量           : 高
添加 ID3 标签  : 否
命令行压缩器   : c:\Program Files\Exact Audio Copy\FLAC\FLAC.EXE
附加命令行参数 : -6 -V -T "ARTIST=%a" -T "TITLE=%t" -T "ALBUM=%g" -T "DATE=%y" -T "TRACKNUMBER=%n" -T "GENRE=%m" -T "COMMENT=%e" %s -o %d


被抓轨 CD 的 TOC

     音轨 |   开始   |   长度   | 起始扇区 | 结尾扇区
    --------------------------------------------------
       1  |  0:00.00 |  4:50.72 |       0  |   21821  
       2  |  4:50.72 |  5:55.03 |   21822  |   48449  
       3  | 10:46.00 |  5:46.72 |   48450  |   74471  
       4  | 16:32.72 |  7:54.70 |   74472  |  110091  
       5  | 24:27.67 |  4:28.05 |  110092  |  130196  
       6  | 28:55.72 |  4:57.73 |  130197  |  152544  
       7  | 33:53.70 |  3:49.02 |  152545  |  169721  
       8  | 37:42.72 |  5:50.00 |  169722  |  195971  
       9  | 43:32.72 |  5:28.03 |  195972  |  220574  
      10  | 49:01.00 |  3:11.00 |  220575  |  234899  
      11  | 52:12.00 |  6:34.00 |  234900  |  264449  
      12  | 58:46.00 |  3:49.32 |  264450  |  281656  


范围状态及错误

已选择范围

     文件名 D:\My Documents\Various - Saturday Afternoon Jazz.wav

     峰值电平 100.0 %
     范围质量 100.0 %
     复制 CRC 1F4F076E
     复制成功

没有错误发生

状态报告结尾



专辑曲目

01. Surrey With A Fringe On Top - Mary Stallings
02. Nuages (Clouds) - Tal Farlow
03. The Best Things In Life Are Free - Ken Peplowski
04. Soft Winds - Gene Harris/Jack McDuff
05. O Barquinho (My Little Boat) - Karrin Allyson
06. Summer Wind - Monty Alexander
07. Chelsea Bridge - Scot Hamilton
08. Hello Young Lovers - Toots Thielmans
09. Dolphin Dance - Howard Roberts
10. On The Sunny Side Of The Street - George Shearing/Ernestine Anderson
11. I'm Just A Lucky So And So - Bill Mays
12. Young At Heart - Joey Defrancesco

正在读取……

这里是其它用户补充的资源(我也要补充):

暂无补充资源
正在加载,请稍等...

点击查看所有31网友评论

 

(?) [公告]留口水、评论相关规则 | [活动]每日签到 轻松领取电驴经验

    小贴士:
  1. 类似“顶”、“沙发”之类没有营养的文字,对勤劳贡献的楼主来说是令人沮丧的反馈信息。
  2. 提问之前请再仔细看一遍楼主的说明,或许是您遗漏了。
  3. 勿催片。请相信驴友们对分享是富有激情的,如果确有更新版本,您一定能搜索到。
  4. 请勿到处挖坑绊人、招贴广告。既占空间让人厌烦,又没人会搭理,于人于己都无利。
  5. 如果您发现自己的评论不见了,请参考以上4条。