v

您的位置:VeryCD音乐欧美音乐

音乐资源事务区


Placebo -《Black Market Music》(黑市音乐)[FLAC]

  • 状态: 精华资源
  • 摘要:
    音乐风格摇滚
    发行时间2001年
    地区英国
    语言英语
  • 时间: 2009/01/07 10:57:30 发布 | 2009/01/08 10:13:23 更新
  • 分类: 音乐  欧美音乐 

xiaopanghrb

精华资源: 14

全部资源: 14

相关: 分享到新浪微博   转播到腾讯微博   分享到开心网   分享到人人   分享到QQ空间   订阅本资源RSS更新   美味书签  subtitle
该内容尚未提供权利证明,无法提供下载。
专辑英文名Black Market Music
专辑中文名黑市音乐
歌手Placebo
音乐风格摇滚
资源格式FLAC
发行时间2001年
地区英国
语言英语
简介

IPB Image

专辑介绍:

刚出道便受到变色龙David Bowie赏识的Placebo,在上一张《Without You I A'm Nothing》里,完美地打造出其激噪Glam-Grunge与阴柔迷幻交织的乐团特色。主唱/吉他手Brian Molko中性独特的嗓音,无论是停留在高低音阶都极具吸引力,宛若是诞生于阎黑,却失落在迷幻沉静里的邪美妖精。

专辑《Black Market Music》由Placebo亲自制作,同时找来Rob Ellis(PJ Harvey专任鼓手)负责弦乐编排与Severe Loren(Linoleum主唱)等众人跨刀,再次将刚柔兼并的能量完全释出。比起《Without You I A'm Nothing》的纯粹,《Black Market Music》少了期待中的深度,却在乐风与节奏上多了突破格局的广度。

开场曲Taste in Men犹如化学兄弟Block Rockin' Beats的贝斯律动,接连至Days Before You Came与Special K熟悉的招牌狂爆吉他,到Justin Warfield厚重饶舌助阵的Spite & Malice。连续四首激进快歌绝对让Grunge迷大呼过瘾!从Passive Aggressive到Peeping Tom则是听众所熟悉的Placebo流畅之作,尤其Black Eyed与Peeping Tom是足以媲美上张专辑里You Don't Care About Us与Summer's Gone的抒情力作。由急至缓,黑市音乐最后在Black Market Blood不协调的弦乐铺陈下低沉地结束。

歌词方面Molko保有他一贯的直接与深沉。在Black Eyed里人性黑暗的告白“I was never faithful And I was never one to trust”。或沉沦在磕药狂欢来满足自我欲望“I was never loyal except to my own pleasure zone”。如此颓靡负面的字句更给人刀割般的深刻感触。

也许你会说《Black Market Music》的歌曲似曾相识、缺乏新意,但无论是激昂或哀愁,Placebo就是散发着一股强烈的情绪感染魔力,让你不得不上瘾。

代码

Exact Audio Copy V0.99 prebeta 4 from 23. January 2008

EAC 抓取日志文件从31. 十二月 2008, 18:50

Placebo / Black Market Music

使用驱动器  :HL-DT-STDVD-ROM GDR8163B   Adapter: 0  ID: 0

读取模式     : 保护
使用精确流   : 是
废除音频缓冲 : 是
使用 C2 指针 : 否

读取偏移校正                   : 0
读取 Lead-In 和 Lead-Out       : 否
用静音填充抓取中丢失偏移的采样 : 是
去除首尾静音块                 : 否
在 CRC 计算中使用了空样本      : 是
已用接口                       : 已安装外部 ASPI 接口

所用输出格式   : 用户定义的编码器
已选比特率     : 768 kBit/s
质量           : 高
添加 ID3 标签  : 是
命令行压缩器   : C:\Program Files\Exact Audio Copy\FLAC\FLAC.EXE
附加命令行参数 : -6 -V -T "ARTIST=%a" -T "TITLE=%t" -T "ALBUM=%g" -T "DATE=%y" -T "TRACKNUMBER=%n" -T "GENRE=%m" -T "COMMENT=%e" %s -o %d


被抓轨 CD 的 TOC

     音轨 |   开始   |   长度   | 起始扇区 | 结尾扇区
    --------------------------------------------------
       1  |  0:00.00 |  4:15.00 |       0  |   19124  
       2  |  4:15.00 |  2:33.02 |   19125  |   30601  
       3  |  6:48.02 |  3:52.23 |   30602  |   48024  
       4  | 10:40.25 |  3:37.35 |   48025  |   64334  
       5  | 14:17.60 |  5:24.02 |   64335  |   88636  
       6  | 19:41.62 |  3:48.08 |   88637  |  105744  
       7  | 23:29.70 |  3:31.17 |  105745  |  121586  
       8  | 27:01.12 |  4:06.68 |  121587  |  140104  
       9  | 31:08.05 |  2:20.57 |  140105  |  150661  
      10  | 33:28.62 |  3:46.08 |  150662  |  167619  
      11  | 37:14.70 |  4:22.25 |  167620  |  187294  
      12  | 41:37.20 | 14:10.62 |  187295  |  251106  


范围状态及错误

已选择范围

     文件名 d:\My Documents\Placebo - Black Market Music.wav

     峰值电平 100.0 %
     范围质量 99.9 %
     复制 CRC 3486CF78
     复制成功

没有错误发生

状态报告结尾



专辑曲目

01. Taste In Men
02. Days Before You Came
03. Special K
04. Spite & Malice
05. Passive Aggressive
06. Black-Eyed
07. Blue American
08. Slave To The Wage
09. Commercial For Levi
10. Haemoglobin
11. Narcoleptic
12. Peeping Tom

正在读取……

这里是其它用户补充的资源(我也要补充):

暂无补充资源
正在加载,请稍等...

点击查看所有22网友评论

 

(?) [公告]留口水、评论相关规则 | [活动]每日签到 轻松领取电驴经验

    小贴士:
  1. 类似“顶”、“沙发”之类没有营养的文字,对勤劳贡献的楼主来说是令人沮丧的反馈信息。
  2. 提问之前请再仔细看一遍楼主的说明,或许是您遗漏了。
  3. 勿催片。请相信驴友们对分享是富有激情的,如果确有更新版本,您一定能搜索到。
  4. 请勿到处挖坑绊人、招贴广告。既占空间让人厌烦,又没人会搭理,于人于己都无利。
  5. 如果您发现自己的评论不见了,请参考以上4条。