v

您的位置:VeryCD音乐欧美音乐

音乐资源事务区


Róisín Murphy -《Overpowered 》(爱情俘虏)[FLAC]

  • 状态: 精华资源
  • 摘要:
    音乐风格电子
    发行时间2007年
    地区英国
    语言英语
  • 时间: 2009/01/04 11:41:10 发布 | 2009/01/04 20:20:31 更新
  • 分类: 音乐  欧美音乐 

xiaopanghrb

精华资源: 14

全部资源: 14

相关: 分享到新浪微博   转播到腾讯微博   分享到开心网   分享到人人   分享到QQ空间   订阅本资源RSS更新   美味书签  subtitle
该内容尚未提供权利证明,无法提供下载。
专辑英文名Overpowered
专辑中文名爱情俘虏
音乐风格电子
资源格式FLAC
发行时间2007年
地区英国
语言英语
简介

IPB Image

专辑介绍:

  ★ 英国经典怪趣电音组合MOLOKO女主唱Roisin Murphy,第二张单飞专辑
  ★ Seiji、Andy Cato (Groove Armada)、Jimmy Douglass、Ill Factor、Richard X等一流音乐猛将跨刀抬轿
  ★ The Observer满分崇拜;The Times、musicOMH.com一致★★★★绝佳赞誉
  出生於爱尔兰的Roisin Murphy,12岁时举家迁居曼彻斯特,父母在离婚后先后返回爱尔兰,当时15岁的Roisin Murphy却决定留在英国。Roisin Murphy17岁时搬到英国的Sheffield,并在一场派对上邂逅同时具有DJ与製作人身份的Mark Brydon,不曾有过专业歌唱经验的Roisin Murphy,在他的鼓励下进行试唱,一拍即合的两人随后组成MOLOKO。1995年发表首张专辑《Do You Like My Tight Sweater》时,MOLOKO还被视为Trip Hop的一员,1998年发行的《I Am Not A Doctor》,则展现他们高深莫测的音乐才华。而2000年与2003年发行的《Things To Make And Do》与《Statues》,以深具卡通乐趣与流行质感的作品,同时收服主流市场与全球舞客。除了在2001年的双CD混音专辑《All Back To The Mine》邀请DJ Krust、Luke Vibert、Pizzicato Five、Ashley Beedle等电音高手跨刀混音,Roisin Murphy也受邀为Handsome Boy Modeling School、Boris Dlugosch献声助阵,2004年她更进一步与Matthew Herbert合作,并於隔年推出首张个人专辑《Ruby Blue》。2006年推出精选辑《Catalogue》后,MOLOKO正式结束与Echo的合作关係,Roisin Murphy虽然没有离开或结束MOLOKO的打算,但她极具戏剧张力的嗓音却也不再侷限於MOLOKO这块闪亮招牌之下。
  2006年5月Roisin Murphy正式成为主流大厂EMI的一员,你手中的《Overpowered》正是她在EMI旗下的首张大碟,也是她第二张个人专辑。当中全数作品皆由她与其它音乐人共同编写或製作,首波同名主打单曲<Overpowered>,由她与Seiji (Bugz in the Attic)共同谱写,并由Tom Elmhirst (Amy Winehouse、Royksopp)负责混音后製工作;第二支单曲<Let Me Know>与<You Know Me Better>则找来Groove Armada的Andy Cato合作,发行后登上英国单曲金榜第28名。除了Seiji、Andy Cato,其它作品由Roision Murphy与Jimmy Douglass、Ill Factor、Parrot & Dean、Richard X等眾多音乐猛将分别在伦敦、巴塞隆纳、迈阿密等地录製,而絃乐部份更由Larry Gold在费城统筹完成。除了多首具备流行、House与Disco复古质感的电音作品外,<Scarlet Ribbons>是少见的动人抒情圣品;而两首加赠曲目<Body Language>、<Parallel Lives>则是热情有劲。继上次《Ruby Blue》前卫的电音实验,这次Roisin Murphy换上一套又一套夸张华美的服装,以兼具冰冷、俏皮、古怪、热情、妖魅的声音表情,完成2007年最惊艳动人的Disco+House复古压轴大秀,而这波以她为主秀的流行电音热潮肯定可以再烧上个好几年

代码

Exact Audio Copy V0.99 prebeta 4 from 23. January 2008

EAC 抓取日志文件从31. 十二月 2008, 18:17

Róisín Murphy  / Overpowered

使用驱动器  :HL-DT-STDVD-ROM GDR8163B   Adapter: 0  ID: 0

读取模式     : 保护
使用精确流   : 是
废除音频缓冲 : 是
使用 C2 指针 : 否

读取偏移校正                   : 0
读取 Lead-In 和 Lead-Out       : 否
用静音填充抓取中丢失偏移的采样 : 是
去除首尾静音块                 : 否
在 CRC 计算中使用了空样本      : 是
已用接口                       : 已安装外部 ASPI 接口

所用输出格式   : 用户定义的编码器
已选比特率     : 768 kBit/s
质量           : 高
添加 ID3 标签  : 是
命令行压缩器   : C:\Program Files\Exact Audio Copy\FLAC\FLAC.EXE
附加命令行参数 : -6 -V -T "ARTIST=%a" -T "TITLE=%t" -T "ALBUM=%g" -T "DATE=%y" -T "TRACKNUMBER=%n" -T "GENRE=%m" -T "COMMENT=%e" %s -o %d


被抓轨 CD 的 TOC

     音轨 |   开始   |   长度   | 起始扇区 | 结尾扇区
    --------------------------------------------------
       1  |  0:00.00 |  5:08.16 |       0  |   23115  
       2  |  5:08.16 |  4:17.44 |   23116  |   42434  
       3  |  9:25.60 |  4:39.19 |   42435  |   63378  
       4  | 14:05.04 |  5:09.49 |   63379  |   86602  
       5  | 19:14.53 |  4:01.46 |   86603  |  104723  
       6  | 23:16.24 |  4:50.24 |  104724  |  126497  
       7  | 28:06.48 |  3:37.11 |  126498  |  142783  
       8  | 31:43.59 |  3:40.38 |  142784  |  159321  
       9  | 35:24.22 |  5:54.59 |  159322  |  185930  
      10  | 41:19.06 |  3:51.32 |  185931  |  203287  
      11  | 45:10.38 |  5:35.69 |  203288  |  228481  
      12  | 50:46.32 |  4:39.40 |  228482  |  249446  
      13  | 55:25.72 |  4:21.51 |  249447  |  269072  


范围状态及错误

已选择范围

     文件名 d:\My Documents\Róisín Murphy  - Overpowered.wav

     峰值电平 99.8 %
     范围质量 99.9 %
     复制 CRC 93B768D0
     复制成功

没有错误发生

状态报告结尾



专辑曲目

01.Overpowered
02.You Know Me Better
03.Checkin' On
04.Let Me Know
05.Movie Star
06.Primitive
07.Footprints
08.Dear Miami
09.Cry Baby
10.Tell Everybody
11.Scarlet Ribbons
12.Body Language
13.Parallel Lives

正在读取……

这里是其它用户补充的资源(我也要补充):

暂无补充资源
正在加载,请稍等...

点击查看所有19网友评论

 

(?) [公告]留口水、评论相关规则 | [活动]每日签到 轻松领取电驴经验

    小贴士:
  1. 类似“顶”、“沙发”之类没有营养的文字,对勤劳贡献的楼主来说是令人沮丧的反馈信息。
  2. 提问之前请再仔细看一遍楼主的说明,或许是您遗漏了。
  3. 勿催片。请相信驴友们对分享是富有激情的,如果确有更新版本,您一定能搜索到。
  4. 请勿到处挖坑绊人、招贴广告。既占空间让人厌烦,又没人会搭理,于人于己都无利。
  5. 如果您发现自己的评论不见了,请参考以上4条。