v

您的位置:VeryCD音乐欧美音乐

音乐资源事务区


Celine Dion -《Taking Chances》(爱的契机)[FLAC]

  • 状态: 精华资源
  • 摘要:
    音乐风格流行
    发行时间2007年11月13日
    地区美国
    语言英语
  • 时间: 2008/12/26 12:48:36 发布 | 2008/12/26 14:59:05 更新
  • 分类: 音乐  欧美音乐 

xuanyi

精华资源: 13

全部资源: 16

相关: 分享到新浪微博   转播到腾讯微博   分享到开心网   分享到人人   分享到QQ空间   订阅本资源RSS更新   美味书签  subtitle
该内容尚未提供权利证明,无法提供下载。
专辑英文名Taking Chances
专辑中文名爱的契机
歌手Celine Dion
音乐风格流行
资源格式FLAC
发行时间2007年11月13日
地区美国
语言英语
简介

IPB Image

专辑介绍:

  从近五年的马拉松式驻唱中结束出来,Celine Dion为全球乐迷带来这么一张全新的英语专辑《Taking Chances》。近五年一周五场的高强度演唱似乎在她的声音上没有留下任何的痕迹一样,几乎可称得上奇迹。而这近五年的驻唱生涯给她的音乐思路带来了什么变化了呢?从《Taking Chances》中可隐约看到些端倪。
  唱片封面的Celine Dion传达了这张专辑的信息:这是一个自信的女人,这是一个很酷的女人,这是一个很品味的女人。曾经有消息称Celine Dion想把这张专辑命名为《Woman In Me》,只因歌迷的强烈反对才改为《Taking Chances》。整张专辑围绕着展现一个自信而勇于表达的女人内心这样一个主题,从选曲到演唱,减少了从前她擅长的柔情万丈的缠绵情歌的分量,更多的歌曲展现出一种粗砾、不加修饰的直白以及女人自我情感的表达。选取的翻唱歌曲也基本上都是摇滚类歌曲,而没有经常会出现的经典的老式情歌。
  从选曲来说,这张专辑显得比较的保守,整体曲风虽然偏“重”“Rock”一些,但Pop的根依旧扎得很稳。翻唱曲目的表现并没有让人忘记原唱,翻唱自 Heart的“Alone”几乎沦为完成发声工作一样的平庸作品,较之十多年前的All By Myself撕心裂肺的难忘表现几乎天壤之别,这是这张专辑里一个最大的败笔。其他节奏较重的歌曲如“Fade Away”则在歌曲编排上让人联想起Kelly Clarkson两年前大红的歌曲“Since U Been Gone”,也容易让人感觉没有突破,“Can't Fight The Feeling”里的唱腔倒是有让听众眼前一亮的惊喜感。
  唱腔上,Celine Dion减少了她歌唱的技巧使用,更加呈现出一种简单化和原始的状态。从另一个方面来说,这大约应该是近5年的驻场演唱所造成的习惯。由此反映到专辑的歌曲中,便有一种需要妖娆柔情处却嫌太硬和直白的挤压感,如拉丁风情的“Eyes On Me”最后的吟唱部分,A World To Believe的副歌部分缺少层次的推进感,令人有些乏味的感觉。“That's Just The Woman In Me”则令人不安的听到了近乎对嗓子虐待的嘶哑的Celine Dion,用力嘶吼有稍有过犹不及的副作用,破坏了少许这首这张专辑里最为点睛最为出彩的作品的意境。
  专辑的16首歌曲,除却“Alone”不提外,其余15首皆有可圈可点之处。专辑同名曲“Taking Chances”虽是翻唱却也唱出了一番味道,与原唱各有千秋;“Eyes On Me”颇有Shakira的风范,只怕又成旁人指摘的对象;“Shadow Of Love”是One Heart中常见的曲风,但在更加混沌的配器之下呈现出空旷的时空感与一个更加酷的Celine Dion,与唱片封面的铁青色相映;New Dawn则可以称作是A New Day Has Come的灵魂版,十分震撼人心;I've Got Nothing Left几乎让人回想起The Colour Of My Love时期的Celine Dion,清亮空灵的声音;Fade AwaySky of L.A舒缓优雅的演唱完美的为这张专辑收尾。
  “My Love”“Surprise Surprise”“This Time”“Song For You”“Right Next To The Right One”“Can't Fight The Feeling” “That's Just The Woman In Me”是这张专辑值得强烈推荐的曲目。
  “My Love”犹如娓娓道来的诗篇,如清风拂面,正是Celine Dion最为擅长的歌曲类型,而她以更加丰富的音色以及强弱变化赋予这样一首情歌以变化起伏的情绪,可算是进入新千年来Celine Dion此种类型歌曲的最佳作品;“Surprise,Surprise”的新意在于歌曲弱化了Celine Dion本人的声音,注重配器音效对于歌者声音的包含配合修饰,使得整首歌曲中歌者的声音不再单调乏味,增加了歌曲本身的可听性,并且这首歌的旋律在整张专辑中比较出挑,可以考虑出单曲宣传,体现出Celine Dion的旧风格与新风
格的结合来;“This Time”个人以为是唱片里类似于“I Surrender”的歌曲,唱片里最为朗朗上口的旋律,也是唱片里Celine Dion唱得最有性格的歌曲,值得向广大非Celine Dion的听众推荐;“Song For You”呈现出歌迷心中那个唯美、优雅、古典的Celine Dion的形象,以钢琴与小提琴作为为伴奏主旋律的歌曲充分展现了Celine Dion充满情感力量的如乐器般精致的声音;“Right Next To The Right One”这样清淡简洁的民谣在Celine Dion以往的作品里很少能看到,这样的歌曲出现是一个小小的惊喜;“That's Just The Woman In Me”是一首情感十分浓烈的歌曲,Celine Dion的演绎稍显刻意,但这样歇斯底里的惊人表现足以让每一个听众浑身都起鸡皮疙瘩。
  Celine Dion曾经说这张专辑是她最好的英语专辑,从歌曲的整体水准来说,以一种更加成熟、平和、自信的心态演绎下的《Taking Chances》较之她以往的专辑多了一些Celine Dion自我的印记,而不是以往专辑中以一种人类情感共性为载体的完美女人形象。如果说《A New Day Has Come》是光鲜外表下空洞的宫殿,《One Heart》是一剂令人燥热的兴奋剂爽过便罢,那么《Taking Chances》便是超越了种种华丽无趣回到了返璞归真的音乐之根。

转自:Celine Dion《Taking Chances》返璞归真的声音盛宴 by 一狐言语||FFT

本资源由Arikm2005发布,在这里表示感谢。

cue和log都是内嵌在flac中的,本人只是提取出来。
log如下:

引用
Exact Audio Copy V0.99 prebeta 3 from 28. July 2007

EAC extraction logfile from 26. November 2007, 0:46

Celine Dion / Taking Chances

Used drive : PLEXTOR CD-R PX-W2410A Adapter: 1 ID: 1

Read mode : Secure
Utilize accurate stream : Yes
Defeat audio cache : Yes
Make use of C2 pointers : No

Read offset correction : 98
Overread into Lead-In and Lead-Out : Yes
Fill up missing offset samples with silence : Yes
Delete leading and trailing silent blocks : No
Null samples used in CRC calculations : Yes
Used interface : Installed external ASPI interface

Used output format : Internal WAV Routines
Sample format : 44.100 Hz; 16 Bit; Stereo


TOC of the extracted CD

Track | Start | Length | Start sector | End sector
---------------------------------------------------------
1 | 0:00.00 | 4:03.25 | 0 | 18249
2 | 4:03.25 | 3:24.55 | 18250 | 33604
3 | 7:28.05 | 3:54.22 | 33605 | 51176
4 | 11:22.27 | 4:09.13 | 51177 | 69864
5 | 15:31.40 | 4:10.22 | 69865 | 88636
6 | 19:41.62 | 5:13.73 | 88637 | 112184
7 | 24:55.60 | 3:47.62 | 112185 | 129271
8 | 28:43.47 | 4:45.08 | 129272 | 150654
9 | 33:28.55 | 3:26.72 | 150655 | 166176
10 | 36:55.52 | 4:08.50 | 166177 | 184826
11 | 41:04.27 | 3:51.13 | 184827 | 202164
12 | 44:55.40 | 4:20.67 | 202165 | 221731
13 | 49:16.32 | 4:10.13 | 221732 | 240494
14 | 53:26.45 | 3:17.47 | 240495 | 255316
15 | 56:44.17 | 4:34.58 | 255317 | 275924
16 | 61:19.00 | 4:23.50 | 275925 | 295699


Range status and errors

Selected range

Filename C:\Temp\Celine Dion - Taking Chances.wav

Peak level 100.0 %
Range quality 100.0 %
Copy CRC CA438247
Copy OK

No errors occurred

End of status report



专辑曲目

01.Taking Chances
02.Alone
03.Eyes On Me
04.My Love
05.Shadow Of Love
06.Surprise Surprise
07.This Time
08.New Dawn
09.A Song For You
10.A World To Believe In
11.Can't Fight The Feelin'
12.I Got Nothin' Left
13.Right Next To The Right One
14.Fade Away
15.That's Just The Woman In Me
16.Skies Of L.A.

正在读取……

这里是其它用户补充的资源(我也要补充):

暂无补充资源
正在加载,请稍等...

点击查看所有70网友评论

 

(?) [公告]留口水、评论相关规则 | [活动]每日签到 轻松领取电驴经验

    小贴士:
  1. 类似“顶”、“沙发”之类没有营养的文字,对勤劳贡献的楼主来说是令人沮丧的反馈信息。
  2. 提问之前请再仔细看一遍楼主的说明,或许是您遗漏了。
  3. 勿催片。请相信驴友们对分享是富有激情的,如果确有更新版本,您一定能搜索到。
  4. 请勿到处挖坑绊人、招贴广告。既占空间让人厌烦,又没人会搭理,于人于己都无利。
  5. 如果您发现自己的评论不见了,请参考以上4条。