v

您的位置:VeryCD音乐日韩音乐

音乐资源事务区


仓木麻衣(Mai Kuraki) -《24 Xmas time》单曲(MP3+APE)[MP3]

  • 状态: 精华资源
  • 摘要:
    音乐风格流行
    发行时间2008年11月26日
    地区日本
    语言日语
  • 时间: 2008/11/25 17:25:00 发布 | 2008/11/30 12:47:15 更新
  • 分类: 音乐  日韩音乐 

etoile

精华资源: 202

全部资源: 203

相关: 分享到新浪微博   转播到腾讯微博   分享到开心网   分享到人人   分享到QQ空间   订阅本资源RSS更新   美味书签  subtitle
该内容尚未提供权利证明,无法提供下载。
专辑中文名24 Xmas time
音乐风格流行
资源格式MP3
版本单曲(MP3+APE)
发行时间2008年11月26日
地区日本
语言日语
简介

IPB Image

专辑介绍:

一直成绩骄人的麻衣这次推出的单曲是一张以圣诞为主题的作品。其中描写了临近圣诞时,女孩子与恋人相见前心跳加速而又期待的心情,相信会产生共鸣的粉丝一定不少。而整张专辑都蔓延着浓郁的圣诞气氛,是一张点缀圣诞的作品。

而该单曲在发售前就已经成为大热门。目前已经确定为连续剧《恋爱~!!honey coming》的主题曲,同时也将作为MUSIC.JP网站的广告主题曲。

代码

REM GENRE JPop
REM DATE 2008
REM DISCID 3F05AA05
REM COMMENT "ExactAudioCopy v0.95b4"
PERFORMER "倉木麻衣"
TITLE "24 Xmas time"
FILE "仓木麻衣(Mai.Kuraki).-.[24.Xmas.time].单曲.(APE).ape" WAVE
  TRACK 01 AUDIO
    TITLE "24 Xmas time"
    PERFORMER "倉木麻衣"
    INDEX 01 00:00:00
  TRACK 02 AUDIO
    TITLE "All I want"
    PERFORMER "倉木麻衣"
    INDEX 00 04:15:10
    INDEX 01 04:16:60
  TRACK 03 AUDIO
    TITLE "24 Xmas time (Remix)"
    PERFORMER "倉木麻衣"
    INDEX 00 09:14:70
    INDEX 01 09:18:07
  TRACK 04 AUDIO
    TITLE "24 Xmas time -instrumental-"
    PERFORMER "倉木麻衣"
    INDEX 00 14:53:49
    INDEX 01 14:55:60
  TRACK 05 AUDIO
    TITLE "All I want -instrumental-"
    PERFORMER "倉木麻衣"
    INDEX 00 19:10:70
    INDEX 01 19:12:44



专辑曲目

1. 24 Xmas time
2. All I want
3. 24 Xmas time (Remix)
4. 24 Xmas time -instrumental-
5. All I want -instrumental-

正在读取……

这里是其它用户补充的资源(我也要补充):

暂无补充资源
正在加载,请稍等...

点击查看所有109网友评论

 

(?) [公告]留口水、评论相关规则 | [活动]每日签到 轻松领取电驴经验

    小贴士:
  1. 类似“顶”、“沙发”之类没有营养的文字,对勤劳贡献的楼主来说是令人沮丧的反馈信息。
  2. 提问之前请再仔细看一遍楼主的说明,或许是您遗漏了。
  3. 勿催片。请相信驴友们对分享是富有激情的,如果确有更新版本,您一定能搜索到。
  4. 请勿到处挖坑绊人、招贴广告。既占空间让人厌烦,又没人会搭理,于人于己都无利。
  5. 如果您发现自己的评论不见了,请参考以上4条。