v

您的位置:VeryCD资料有声读物

资料资源事务区


《沈从文晚年口述 》随书光盘[APE]

  • 状态: 精华资源
  • 摘要:
    发行时间2003年
    语言普通话
  • 时间: 2008/03/26 23:24:01 发布 | 2008/03/29 01:38:07 更新
  • 分类: 资料  有声读物 

hilbert

精华资源: 1

全部资源: 4

相关: 分享到新浪微博   转播到腾讯微博   分享到开心网   分享到人人   分享到QQ空间   订阅本资源RSS更新   美味书签  subtitle
该内容尚未提供权利证明,无法提供下载。
中文名沈从文晚年口述
资源格式APE
版本随书光盘
发行时间2003年
地区大陆
语言普通话
简介

IPB Image


内容简介:

本书收录晚年沈从文在湖南的三个演讲、与美国学者金介甫和助手王亚蓉的谈话及部分信札,内容丰富富深刻、鲜为人知。读者可以从字里行间找回一位大师的音容笑貌,享受他的感悟和启迪。

特色及评论:

我没有别的能力,我非要靠着这一只手撑着活下去,愿望尽管好像很伟大,工作能力很低。生命这个东西,那个时候已经宣布药都不敢下了,我也不在乎,一点儿都没感到悲哀,因为经历得太多了。现在我这个职务是不让我说话,这是一个幸运的地方。

作者介绍:

王亚蓉,一九七五年即追随沈从文,与王予并为沈从文服饰文物研究事业的左右手。两人曾协助沈老整理巨著《中国古代服饰研究》,并继续沈从文《中国古代服饰大系》的研究事业。退休前为中国社会科学院历史研究所古代服饰专家;几十年间曾参与全国各地多处重大考古丝绸文物的现场发掘、保护、鉴定工作。

=======================以下是沈从文介绍,来源于wikipedia=========================
沈从文

沈从文(1902年12月28日-1988年5月10日),原名沈岳焕,生于中国湖南省凤凰县(今湘西土家族苗族自治州),他的祖母是苗族,母亲是土家族。是中国现代著名的文学家、小说家、散文家和考古学专家。

目录

* 1 生平
* 2 关于沈从文与诺贝尔文学奖
* 3 主要著作
o 3.1 小说集
o 3.2 散文集
o 3.3 学术著作
* 4 相关传记
* 5 参见

生平

沈从文与妻子张兆和

沈从文在1917年高小毕业后,进入当地土著部队办理杂事,后任书记。1923年进入北京大学旁听,同时练习写作。1924年开始发表作品,并结识郁达夫、徐志摩、林宰平等人。1925年发表第一篇小说《福生》,1926年出版第一个创作文集《鸭子》。同年底,沈从文在上海与胡也频等自筹资金,创办《人间》《红黑》杂志,终因资金不足而停刊。沈从文20年代起蜚声文坛,与诗人徐志摩、散文家周作人、杂文家鲁迅齐名。沈以其小说创作著称。而后,他改执教鞭,1928年到1930年任教于上海中国公学,兼任《大公报》、《益事报》等文艺副刊主编;后曾先后在辅仁大学、国立青岛大学(现中国海洋大学鱼山主校区)、武汉大学、昆明西南联合大学、北京大学等校任教。1948年受到所谓左翼文化人郭沫若等的批判,中止文学创作,转入历史文物研究,主要研究中国古代服饰。1950年到1978年在北京中国历史博物馆任文物研究员;1978年到1988年在中国社会科学院研究所任研究员。

1949年以后,沈从文没有进行过小说创作。他的书在三十多年间仅出版过一次。据说他如能多活数月,便极可能在1988年获得诺贝尔文学奖。

沈从文只有小学学历。西南联大要提升沈从文为教授时,刘文典一直看不起搞新文学创作的人。一次,在西南联大的教务会议上,他提出质疑:“陈寅恪才是真正的教授,他该拿400块钱,我该拿40块钱,朱自清该拿4块钱,可我不会给沈从文4毛钱。沈从文要是教授,那我是什么?”美籍文学评论家夏志清则对“沈从文在中国文学史上的重要性”予以充分的肯定,在评点沈的《静》时他说,“三十年代的中国作家,再没有别人能在相同的篇幅内,写出一篇如此有象征意味如此感情丰富的小说来。”

在中国公学教书时,沈从文爱上他的女学生张兆和,写了不少的情书追求她,并引发校长胡适的同情,施以援手。最后,据说因沈从文的情书“写得太好了”,张兆和终于同意嫁给沈从文。

关于沈从文与诺贝尔文学奖

瑞典学院院士、诺贝尔文学奖终身评审委员谢尔以.马悦然于高行健获得了诺贝尔文学奖后,在《明报月刊》中表示,1987、1988年诺贝尔文学奖最后候选名单之中,沈从文入选了,而且马悦然认为沈从文是1988年中最有机会获奖的候选人。1988年,马悦然向中华人民共和国驻瑞典大使馆文化处询问沈从文是否仍然在世,得到的回答是:“从来没有听说过这个人。”其时,沈从文刚刚离世数月。

文化界流传,1988年诺贝尔评审委员会已经决定文学奖得奖者是沈从文,但因为诺贝尔奖只会颁授给在世的人,因此沈从文与诺贝尔文学奖可谓失之交臂。

主要著作
小说集

* 《蜜柑》
* 《雨后及其他》
* 《神巫之爱》
* 《龙朱》
* 《旅店及其他》
* 《石子船》
* 《虎雏》
* 《阿黑小史》
* 《月下小景》
* 《八骏图》
* 《如蕤集》
* 《从文小说习作选》
* 《新与旧》
* 《主妇集》
* 《春灯集》
* 《黑凤集》
* 《阿丽思中国游记》
* 《边城》
* 《长河》

散文集

* 《从文自传》
* 《记丁玲》
* 《湘行散记》
* 《湘西》
* 《废邮存底》
* 《烛虚》
* 《云南看云集》

学术著作

* 《中国古代服饰研究》

相关传记

* 沈从文,《从文自传》,湖南美术出版社
* 金介甫,《沈从文传》,国际文化出版社
* 凌宇,《沈从文传》,北京十月文艺出版社

用EAC抓取有2个时间点有瑕疵,但考虑到此资源是语音讲座,故认为这些瑕疵可以忽略不计。

第一个下载连接与第四个下载连接内容一致,区别在于第四个下载连接生成时添加了hashset。

====================以下是CD内容============================

代码
REM DISCID 3F0E3305
REM COMMENT "ExactAudioCopy v0.99pb4"
PERFORMER "沈从文"
TITLE "沈从文晚年口述"
FILE "沈从文晚年口述.ape" WAVE
  TRACK 01 AUDIO
    TITLE "离开文物就没法子说懂历史"
    PERFORMER "在湖南省博物馆的演讲"
    INDEX 01 00:00:00
  TRACK 02 AUDIO
    TITLE "还不仅是一个服装史"
    PERFORMER "在《湘江文艺》座谈会上的讲话"
    INDEX 00 15:43:34
    INDEX 01 15:45:33
  TRACK 03 AUDIO
    TITLE "是不是能先做记者"
    PERFORMER "在《湘江文艺》座谈会上的讲话"
    INDEX 00 23:50:10
    INDEX 01 23:52:09
  TRACK 04 AUDIO
    TITLE "倒来倒去就比我们厉害了"
    PERFORMER "在湖南省文联座谈会上的讲话"
    INDEX 00 35:57:72
    INDEX 01 35:59:71
  TRACK 05 AUDIO
    TITLE "学术界里头给他产生个印象"
    PERFORMER "在湖南省文联座谈会上的讲话"
    INDEX 00 48:06:44
    INDEX 01 48:08:43



======================以下免责声明==========================
[免责声明]
该下载内容仅限於个人测试学习之用,不得用於商业用途,并且请在下载后24小时内删除。
资源版权归作者及其公司所有,如果你喜欢,请购买正版。


======================以下防毒软件扫描==========================
[安全检测]
已通过安全检测
安全检测软体: McAfee
版本: 8.0.0 patch13
扫描引擎版本: 5200
特征码: 5260


======================以下服务器信息==========================
共用伺服器: Razorback 3.0、Razorback 3.1、!! Saugstube !!
共用服务时间: 全天不定时
另: 我看到排队下载此资源的都会加一段时间好友,也谢谢各位能帮我一起传。

正在读取……

这里是其它用户补充的资源(我也要补充):

暂无补充资源
正在加载,请稍等...

点击查看所有23网友评论

 

(?) [公告]留口水、评论相关规则 | [活动]每日签到 轻松领取电驴经验

    小贴士:
  1. 类似“顶”、“沙发”之类没有营养的文字,对勤劳贡献的楼主来说是令人沮丧的反馈信息。
  2. 提问之前请再仔细看一遍楼主的说明,或许是您遗漏了。
  3. 勿催片。请相信驴友们对分享是富有激情的,如果确有更新版本,您一定能搜索到。
  4. 请勿到处挖坑绊人、招贴广告。既占空间让人厌烦,又没人会搭理,于人于己都无利。
  5. 如果您发现自己的评论不见了,请参考以上4条。