v

您的位置:VeryCD音乐原声音乐

音乐资源事务区


樱庭统 -《信赖铃音:肖邦之梦》(Trusty Bell: Chopin's Dream)[APE]

  • 状态: 精华资源
  • 摘要:
    发行时间2007年07月25日
  • 时间: 2007/10/23 19:18:14 发布 | 2007/12/08 17:36:58 更新
  • 分类: 音乐  原声音乐 

jason_jiang

精华资源: 53

全部资源: 54

相关: 分享到新浪微博   转播到腾讯微博   分享到开心网   分享到人人   分享到QQ空间   订阅本资源RSS更新   美味书签  subtitle
该内容尚未提供权利证明,无法提供下载。
专辑中文名信赖铃音:肖邦之梦
专辑英文名Trusty Bell: Chopin's Dream
别名トラスティベル~ショパンの夢~ オリジナルスコア
艺术家樱庭统
资源格式APE
发行时间2007年07月25日
地区日本
语言日语
简介

IPB Image


专辑介绍:

《信赖铃音:肖邦之梦》是日本NBGI公司开发的Xbox360平台RPG。这款有着如童话般美丽意境和诗歌一样优美音乐的游戏,是以著名音乐家肖邦辞别人世3小时前的梦境为舞台而展开的。肖邦在神奇的梦幻世界中遇到了身患不治之症的少女波尔卡,和为了拯救波尔卡而不懈努力的少年阿莱克莱特,并与他们一同经历了奇妙的冒险。

本作的制作人是曾经开发过《传说》系列以及《霸天开拓史》系列的野口伸二,而为本作的女主人公波尔卡配音的,则是超人气声优平野绫。另外,制作方还专门聘请了著名钢琴演奏家斯坦尼斯拉夫·布宁(Stanislav Bunin)在游戏中演奏肖邦创作的多首名曲。

这张专辑是游戏的OST,收录了所有游戏配乐。下载后请用记事本打开CUE文件,把以下CUE粘贴进去,换掉原来的CUE。记得在最后一行加个回车。

信赖铃音:肖邦之梦 OST Disc1 修正CUE

代码
TITLE "トラスティベル~ショパンの夢~ OST Disc 1"
FILE "NBGI - トラスティベル~ショパンの夢~ オリジナルスコア Disc 1.ape" WAVE
  TRACK 01 AUDIO
    TITLE "心の輝石"
    PERFORMER "桜庭統"
    INDEX 01 00:00:00
  TRACK 02 AUDIO
    TITLE "Think of me"
    PERFORMER "桜庭統"
    INDEX 00 04:10:46
    INDEX 01 04:12:16
  TRACK 03 AUDIO
    TITLE "雨だれ"
    PERFORMER "Fryderyk Franciszek Chopin / Stanislav Bunin"
    INDEX 00 04:53:62
    INDEX 01 04:56:32
  TRACK 04 AUDIO
    TITLE "Relaxing place"
    PERFORMER "桜庭統"
    INDEX 00 11:01:65
    INDEX 01 11:04:34
  TRACK 05 AUDIO
    TITLE "Leap the precipice"
    PERFORMER "桜庭統"
    INDEX 00 14:21:09
    INDEX 01 14:22:54
  TRACK 06 AUDIO
    TITLE "Well-done"
    PERFORMER "桜庭統"
    INDEX 00 17:46:25
    INDEX 01 17:47:70
  TRACK 07 AUDIO
    TITLE "Two ends of my doze"
    PERFORMER "桜庭統"
    INDEX 00 18:23:60
    INDEX 01 18:25:30
  TRACK 08 AUDIO
    TITLE "Reflect the sky. Bloom the life"
    PERFORMER "桜庭統"
    INDEX 00 18:59:23
    INDEX 01 19:00:68
  TRACK 09 AUDIO
    TITLE "手の中の淡い光"
    PERFORMER "桜庭統"
    INDEX 00 22:53:44
    INDEX 01 22:55:14
  TRACK 10 AUDIO
    TITLE "皆が求する凡庸"
    PERFORMER "桜庭統"
    INDEX 00 25:35:23
    INDEX 01 25:36:68
  TRACK 11 AUDIO
    TITLE "Underground for underhand"
    PERFORMER "桜庭統"
    INDEX 00 28:18:02
    INDEX 01 28:19:47
  TRACK 12 AUDIO
    TITLE "Rapid fire"
    PERFORMER "桜庭統"
    INDEX 00 31:02:34
    INDEX 01 31:04:04
  TRACK 13 AUDIO
    TITLE "立ち向かう覚悟"
    PERFORMER "桜庭統"
    INDEX 00 33:15:07
    INDEX 01 33:16:52
  TRACK 14 AUDIO
    TITLE "Can you recite the dream?"
    PERFORMER "桜庭統"
    INDEX 00 35:48:00
    INDEX 01 35:49:45
  TRACK 15 AUDIO
    TITLE "Illuminant lives"
    PERFORMER "桜庭統"
    INDEX 00 38:18:39
    INDEX 01 38:20:09
  TRACK 16 AUDIO
    TITLE "共に在る時"
    PERFORMER "桜庭統"
    INDEX 00 41:31:51
    INDEX 01 41:33:21
  TRACK 17 AUDIO
    TITLE "あなた次第"
    PERFORMER "桜庭統"
    INDEX 00 44:17:03
    INDEX 01 44:18:48
  TRACK 18 AUDIO
    TITLE "Innumerable animals"
    PERFORMER "桜庭統"
    INDEX 00 47:24:37
    INDEX 01 47:26:07
  TRACK 19 AUDIO
    TITLE "重圧"
    PERFORMER "桜庭統"
    INDEX 00 50:12:15
    INDEX 01 50:13:60
  TRACK 20 AUDIO
    TITLE "明暗を分かつ瞬き"
    PERFORMER "桜庭統"
    INDEX 00 53:50:31
    INDEX 01 53:52:01
  TRACK 21 AUDIO
    TITLE "同じようで違うけど同じ?"
    PERFORMER "桜庭統"
    INDEX 00 56:30:15
    INDEX 01 56:31:60

信赖铃音:肖邦之梦 OST Disc2 修正CUE
代码
TITLE "トラスティベル~ショパンの夢~ OST Disc 2"
FILE "NBGI - トラスティベル~ショパンの夢~ オリジナルスコア Disc 2.ape" WAVE
  TRACK 01 AUDIO
    TITLE "革命"
    PERFORMER "Fryderyk Franciszek Chopin / Stanislav Bunin"
    INDEX 01 00:00:00
  TRACK 02 AUDIO
    TITLE "Dive into the vast expanse of plains"
    PERFORMER "桜庭統"
    INDEX 00 03:02:65
    INDEX 01 03:05:35
  TRACK 03 AUDIO
    TITLE "策謀"
    PERFORMER "桜庭統"
    INDEX 00 06:15:60
    INDEX 01 06:17:30
  TRACK 04 AUDIO
    TITLE "背も腹もない壁"
    PERFORMER "桜庭統"
    INDEX 00 09:43:00
    INDEX 01 09:44:45
  TRACK 05 AUDIO
    TITLE "Breeze the conductor"
    PERFORMER "桜庭統"
    INDEX 00 12:49:54
    INDEX 01 12:51:24
  TRACK 06 AUDIO
    TITLE "揺らぐ銃後"
    PERFORMER "桜庭統"
    INDEX 00 15:49:04
    INDEX 01 15:50:49
  TRACK 07 AUDIO
    TITLE "DANTOTSU!"
    PERFORMER "桜庭統"
    INDEX 00 19:11:39
    INDEX 01 19:13:09
  TRACK 08 AUDIO
    TITLE "侮らない構え"
    PERFORMER "桜庭統"
    INDEX 00 21:13:33
    INDEX 01 21:15:03
  TRACK 09 AUDIO
    TITLE "強さから優しさへ"
    PERFORMER "桜庭統"
    INDEX 00 24:42:65
    INDEX 01 24:44:35
  TRACK 10 AUDIO
    TITLE "Journey to projective mind"
    PERFORMER "桜庭統"
    INDEX 00 28:23:17
    INDEX 01 28:24:62
  TRACK 11 AUDIO
    TITLE "追撃"
    PERFORMER "桜庭統"
    INDEX 00 32:00:17
    INDEX 01 32:01:62
  TRACK 12 AUDIO
    TITLE "I bet my belief"
    PERFORMER "桜庭統"
    INDEX 00 34:37:63
    INDEX 01 34:39:33
  TRACK 13 AUDIO
    TITLE "幻想即興曲"
    PERFORMER "Fryderyk Franciszek Chopin / Stanislav Bunin"
    INDEX 00 37:29:57
    INDEX 01 37:32:27
  TRACK 14 AUDIO
    TITLE "静寂と生息"
    PERFORMER "桜庭統"
    INDEX 00 42:47:60
    INDEX 01 42:50:30
  TRACK 15 AUDIO
    TITLE "Wonderland of Wanderer"
    PERFORMER "桜庭統"
    INDEX 00 45:58:45
    INDEX 01 46:00:15
  TRACK 16 AUDIO
    TITLE "Endure and resist"
    PERFORMER "桜庭統"
    INDEX 00 49:19:23
    INDEX 01 49:20:68
  TRACK 17 AUDIO
    TITLE "No No I don't die Noooo!"
    PERFORMER "桜庭統"
    INDEX 00 52:00:08
    INDEX 01 52:01:53

信赖铃音:肖邦之梦 OST Disc3 修正CUE
代码
TITLE "トラスティベル~ショパンの夢~ OST Disc 3"
FILE "NBGI - トラスティベル~ショパンの夢~ オリジナルスコア Disc 3.ape" WAVE
  TRACK 01 AUDIO
    TITLE "華麗なる大円舞曲"
    PERFORMER "Fryderyk Franciszek Chopin / Stanislav Bunin"
    INDEX 01 00:00:00
  TRACK 02 AUDIO
    TITLE "A buffer for quiet"
    PERFORMER "桜庭統"
    INDEX 00 05:56:44
    INDEX 01 05:59:14
  TRACK 03 AUDIO
    TITLE "心の散歩"
    PERFORMER "桜庭統"
    INDEX 00 08:56:36
    INDEX 01 08:58:06
  TRACK 04 AUDIO
    TITLE "Seize the artifact for tallness"
    PERFORMER "桜庭統"
    INDEX 00 10:49:18
    INDEX 01 10:50:63
  TRACK 05 AUDIO
    TITLE "和を尊ぶ調べ"
    PERFORMER "桜庭統"
    INDEX 00 14:09:33
    INDEX 01 14:11:03
  TRACK 06 AUDIO
    TITLE "明日から…"
    PERFORMER "桜庭統"
    INDEX 00 16:57:70
    INDEX 01 16:59:40
  TRACK 07 AUDIO
    TITLE "白き鏡"
    PERFORMER "桜庭統"
    INDEX 00 19:13:71
    INDEX 01 19:15:41
  TRACK 08 AUDIO
    TITLE "Rock and burn you"
    PERFORMER "桜庭統"
    INDEX 00 22:27:09
    INDEX 01 22:28:54
  TRACK 09 AUDIO
    TITLE "夜想曲"
    PERFORMER "Fryderyk Franciszek Chopin / Stanislav Bunin"
    INDEX 00 25:20:28
    INDEX 01 25:22:73
  TRACK 10 AUDIO
    TITLE "一歩"
    PERFORMER "桜庭統"
    INDEX 00 29:52:45
    INDEX 01 29:55:15
  TRACK 11 AUDIO
    TITLE "雪と氷の境界"
    PERFORMER "桜庭統"
    INDEX 00 33:38:66
    INDEX 01 33:40:36
  TRACK 12 AUDIO
    TITLE "Repeated tide"
    PERFORMER "桜庭統"
    INDEX 00 36:44:56
    INDEX 01 36:46:26
  TRACK 13 AUDIO
    TITLE "冷厳な意思"
    PERFORMER "桜庭統"
    INDEX 00 39:53:65
    INDEX 01 39:55:35
  TRACK 14 AUDIO
    TITLE "別れの曲"
    PERFORMER "Fryderyk Franciszek Chopin / Stanislav Bunin"
    INDEX 00 42:47:41
    INDEX 01 42:50:11
  TRACK 15 AUDIO
    TITLE "Continuous divider"
    PERFORMER "桜庭統"
    INDEX 00 47:35:04
    INDEX 01 47:37:49

信赖铃音:肖邦之梦 OST Disc4 修正CUE
代码
TITLE "トラスティベル~ショパンの夢~ OST Disc 4"
FILE "NBGI - トラスティベル~ショパンの夢~ オリジナルスコア Disc 4.ape" WAVE
  TRACK 01 AUDIO
    TITLE "Your truth is my false"
    PERFORMER "桜庭統"
    INDEX 01 00:00:00
  TRACK 02 AUDIO
    TITLE "Captured phantom"
    PERFORMER "桜庭統"
    INDEX 00 03:09:57
    INDEX 01 03:11:27
  TRACK 03 AUDIO
    TITLE "The etudes of spirit"
    PERFORMER "桜庭統"
    INDEX 00 06:35:46
    INDEX 01 06:37:16
  TRACK 04 AUDIO
    TITLE "行き着くところ"
    PERFORMER "桜庭統"
    INDEX 00 09:34:62
    INDEX 01 09:36:32
  TRACK 05 AUDIO
    TITLE "Spiral twister"
    PERFORMER "桜庭統"
    INDEX 00 13:12:36
    INDEX 01 13:14:06
  TRACK 06 AUDIO
    TITLE "Broken balance"
    PERFORMER "桜庭統"
    INDEX 00 16:43:58
    INDEX 01 16:45:28
  TRACK 07 AUDIO
    TITLE "The unreasonable theory"
    PERFORMER "桜庭統"
    INDEX 00 20:21:17
    INDEX 01 20:22:62
  TRACK 08 AUDIO
    TITLE "英雄"
    PERFORMER "Fryderyk Franciszek Chopin / Stanislav Bunin"
    INDEX 00 23:55:44
    INDEX 01 23:58:14
  TRACK 09 AUDIO
    TITLE "Embarrassment consistency"
    PERFORMER "桜庭統"
    INDEX 00 31:12:19
    INDEX 01 31:14:64
  TRACK 10 AUDIO
    TITLE "Scrap and build ourselves -革命より-"
    PERFORMER "桜庭統"
    INDEX 00 33:58:28
    INDEX 01 33:59:73
  TRACK 11 AUDIO
    TITLE "事実と誠実、そして真実"
    PERFORMER "桜庭統"
    INDEX 00 37:50:60
    INDEX 01 37:52:30
  TRACK 12 AUDIO
    TITLE "灯"
    PERFORMER "桜庭統"
    INDEX 00 42:54:57
    INDEX 01 42:56:27
  TRACK 13 AUDIO
    TITLE "大切な人"
    PERFORMER "桜庭統"
    INDEX 00 46:35:00
    INDEX 01 46:36:45
  TRACK 14 AUDIO
    TITLE "Someone's evening. Someone's daybreak"
    PERFORMER "桜庭統"
    INDEX 00 49:53:22
    INDEX 01 49:54:67
  TRACK 15 AUDIO
    TITLE "鏡天花"
    PERFORMER "桜庭統/品田昭子"
    INDEX 00 53:50:25
    INDEX 01 53:51:70
  TRACK 16 AUDIO
    TITLE "命のかたち"
    PERFORMER "桜庭統"
    INDEX 00 61:31:50
    INDEX 01 61:33:20



专辑曲目

Disc1

01 心の辉石
02 Think of me
03 雨だれ/ ブーニン
04 Relaxing place
05 Leap the precipice
06 Well-done
07 Two ends of my doze
08 Reflect the sky Bloom the life
09 手の中の淡い光
10 皆が求する凡庸
11 Underground for underhand
12 Rapid fire
13 立ち向かう覚悟
14 Can you recite the dream?
15 Illuminant lives
16 共に在る时
17 あなた次第
18 Innumerable animals
19 重圧
20 明暗を分かつ瞬き
21 同じようで违うけど同じ?

Disc2

01 革命/ ブーニン
02 Dive into the vast expanse of plains
03 策谋
04 背も腹もない壁
05 Breeze the conductor
06 揺らぐ銃后
07 DANTOTSU!
08 侮らない构え
09 强さから优しさへ
10 Journey to projective mind
11 追撃
12 I bet my belief
13 幻想即兴曲/ ブーニン
14 静寂と生息
15 Wonderland of Wanderer
16 Endure and resist
17 No No I don't die Noooo!

Disc3

01 华丽なる大円舞曲/ ブーニン
02 A buffer for quiet
03 心の散歩
04 Seize the artifact for tallness
05 和を尊ぶ调べ
06 明日から…
07 白き镜
08 Rock and burn you
09 夜想曲/ ブーニン
10 一歩
11 雪と氷の境界
12 Repeated tide
13 冷厳な意思
14 别れの曲/ ブーニン
15 Continuous divider

Disc4

01 Your truth is my false
02 Captured phantom
03 The etudes of spirit
04 行き着くところ
05 Spiral twister
06 Broken balance
07 The unreasonable theory
08 英雄/ ブーニン
09 Embarrassment consistency
10 Scrap and build ourselves -革命より-
11 事実と诚実、そして真実
12 灯
13 大切な人
14 Someone's evening Someone's daybreak
15 镜天花/ 品田昭子
16 命のかたち

正在读取……

这里是其它用户补充的资源(我也要补充):

暂无补充资源
正在加载,请稍等...

点击查看所有22网友评论

 

(?) [公告]留口水、评论相关规则 | [活动]每日签到 轻松领取电驴经验

    小贴士:
  1. 类似“顶”、“沙发”之类没有营养的文字,对勤劳贡献的楼主来说是令人沮丧的反馈信息。
  2. 提问之前请再仔细看一遍楼主的说明,或许是您遗漏了。
  3. 勿催片。请相信驴友们对分享是富有激情的,如果确有更新版本,您一定能搜索到。
  4. 请勿到处挖坑绊人、招贴广告。既占空间让人厌烦,又没人会搭理,于人于己都无利。
  5. 如果您发现自己的评论不见了,请参考以上4条。