v

您的位置:VeryCD音乐原声音乐

音乐资源事务区


原声大碟 -《大神》(Okami)附钢琴混音大碟[APE]

  • 状态: 精华资源
  • 摘要:
    发行时间2006年05月31日
  • 时间: 2007/10/03 22:05:30 发布 | 2007/10/05 19:55:48 更新
  • 分类: 音乐  原声音乐 

jason_jiang

精华资源: 53

全部资源: 54

相关: 分享到新浪微博   转播到腾讯微博   分享到开心网   分享到人人   分享到QQ空间   订阅本资源RSS更新   美味书签  subtitle
该内容尚未提供权利证明,无法提供下载。
专辑中文名大神
专辑英文名Okami
别名大神 オリジナル.サウンドトラック
艺术家原声大碟
资源格式APE
版本附钢琴混音大碟
发行时间2006年05月31日
地区日本
语言日语
简介

IPB Image


专辑介绍:

《大神》是日本CAPCOM公司独立出的“四叶草工作室”开发的PS2动作游戏。故事背景为被妖怪所支配、失去缤纷色彩而了无生机的世界,玩家将要操作背着日本三神器之一·八咫镜的狼(日本神话中的太阳神“天照”的化身),打倒妖怪,让世界回复为生机盎然的彩色世界。有别于一般游戏的拟真风格或者是卡通风格,本游戏的画面以特殊的水墨着色法所构成,呈现出日式水墨画独特的风格与笔触。水墨画般的游戏画面,与充满和风的配乐,交织成这款风格独特的作品。

这张专辑是游戏的OST,收录了所有游戏配乐。第5张CD是印象曲集,其中有04年东京电玩展、05年美国E3展、05年东京电玩展上的游戏预告片的配乐。下载后请用记事本打开CUE文件,把以下CUE粘贴进去,换掉原来的CUE。记得在最后一行加个回车。

大神 OST Disc1 修正CUE

引用
PERFORMER "上田雅美/近藤嶺/海田明里"
TITLE "大神 OST Disc1"
FILE "Unknown Artist - Unknown Title.ape" WAVE
TRACK 01 AUDIO
TITLE "タイトル"
INDEX 01 00:00:00
TRACK 02 AUDIO
TITLE "タイトルコール"
INDEX 00 01:15:39
INDEX 01 01:17:09
TRACK 03 AUDIO
TITLE "始まり"
INDEX 00 01:25:37
INDEX 01 01:27:09
TRACK 04 AUDIO
TITLE "プロローグ"
INDEX 01 01:37:12
TRACK 05 AUDIO
TITLE "恵巧み"
INDEX 00 02:39:64
INDEX 01 02:41:29
TRACK 06 AUDIO
TITLE "ヤマタノオロチ復活"
INDEX 00 03:50:41
INDEX 01 03:52:07
TRACK 07 AUDIO
TITLE "大神アマテラス復活"
INDEX 00 05:48:17
INDEX 01 05:49:58
TRACK 08 AUDIO
TITLE "オイラのテーマ"
INDEX 00 06:16:47
INDEX 01 06:18:14
TRACK 09 AUDIO
TITLE "呪い"
INDEX 00 07:25:68
INDEX 01 07:27:34
TRACK 10 AUDIO
TITLE "イザナギ窟"
INDEX 00 08:13:51
INDEX 01 08:15:19
TRACK 11 AUDIO
TITLE "星空を見上げる"
INDEX 00 11:45:44
INDEX 01 11:47:15
TRACK 12 AUDIO
TITLE "星座(画龍)"
INDEX 01 12:41:42
TRACK 13 AUDIO
TITLE "星座完成"
INDEX 01 13:33:15
TRACK 14 AUDIO
TITLE "筆神登場"
INDEX 01 13:39:48
TRACK 15 AUDIO
TITLE "筆神との会話"
INDEX 01 13:52:46
TRACK 16 AUDIO
TITLE "筆しらべ"
INDEX 00 14:38:05
INDEX 01 14:39:48
TRACK 17 AUDIO
TITLE "画龍成功"
INDEX 00 15:18:32
INDEX 01 15:18:74
TRACK 18 AUDIO
TITLE "神隠し"
INDEX 00 15:30:44
INDEX 01 15:32:10
TRACK 19 AUDIO
TITLE "神木村復活"
INDEX 00 17:20:10
INDEX 01 17:21:50
TRACK 20 AUDIO
TITLE "ミカン爺登場"
INDEX 00 17:47:18
INDEX 01 17:48:56
TRACK 21 AUDIO
TITLE "物の怪の気配"
INDEX 00 18:55:41
INDEX 01 18:56:06
TRACK 22 AUDIO
TITLE "妖怪退治"
INDEX 01 19:56:50
TRACK 23 AUDIO
TITLE "戦闘評価(神)"
INDEX 01 25:55:46
TRACK 24 AUDIO
TITLE "神木村 其の一"
INDEX 00 26:02:21
INDEX 01 26:03:63
TRACK 25 AUDIO
TITLE "神木村 其の二"
INDEX 01 27:45:61
TRACK 26 AUDIO
TITLE "ここ掘れワンワン"
INDEX 00 30:13:16
INDEX 01 30:14:55
TRACK 27 AUDIO
TITLE "変な形の大根"
INDEX 01 30:57:64
TRACK 28 AUDIO
TITLE "修行をサボるスサノオ"
INDEX 00 31:03:64
INDEX 01 31:05:29
TRACK 29 AUDIO
TITLE "スサノオを乗せる"
INDEX 00 32:44:05
INDEX 01 32:45:42
TRACK 30 AUDIO
TITLE "エサをお食べ"
INDEX 00 34:24:14
INDEX 01 34:25:56
TRACK 31 AUDIO
TITLE "スサノオの鍛錬"
INDEX 00 35:49:57
INDEX 01 35:51:22
TRACK 32 AUDIO
TITLE "スサノオ焦る"
INDEX 01 38:30:15
TRACK 33 AUDIO
TITLE "大岩切り成功"
INDEX 01 39:42:73
TRACK 34 AUDIO
TITLE "呪われた神州平原 其の一"
INDEX 00 39:51:20
INDEX 01 39:52:62
TRACK 35 AUDIO
TITLE "呪われた神州平原 其の二"
INDEX 01 42:55:48
TRACK 36 AUDIO
TITLE "呪われた花咲谷"
INDEX 00 46:36:65
INDEX 01 46:38:32
TRACK 37 AUDIO
TITLE "天邪鬼の宴"
INDEX 00 50:14:61
INDEX 01 50:16:26
TRACK 38 AUDIO
TITLE "ネムリのテーマ"
INDEX 00 51:03:65
INDEX 01 51:05:31
TRACK 39 AUDIO
TITLE "張り切るスサノオ 前半"
INDEX 00 51:47:68
INDEX 01 51:49:35
TRACK 40 AUDIO
TITLE "張り切るスサノオ 後半"
INDEX 01 52:18:46
TRACK 41 AUDIO
TITLE "スサノオの戦い"
INDEX 01 52:57:64
TRACK 42 AUDIO
TITLE "塞の芽復活"
INDEX 00 54:19:04
INDEX 01 54:20:44
TRACK 43 AUDIO
TITLE "花咲谷復活"
INDEX 01 54:38:20
TRACK 44 AUDIO
TITLE "花咲谷"
INDEX 01 54:58:48
TRACK 45 AUDIO
TITLE "タタリ場"
INDEX 00 57:02:22
INDEX 01 57:03:63
TRACK 46 AUDIO
TITLE "大神降ろし"
INDEX 00 59:18:46
INDEX 01 59:20:15
TRACK 47 AUDIO
TITLE "神州平原 其の一"
INDEX 00 60:00:30
INDEX 01 60:01:70
TRACK 48 AUDIO
TITLE "神州平原 其の二"
INDEX 01 63:06:71
TRACK 49 AUDIO
TITLE "道場入り口"
INDEX 00 66:30:35
INDEX 01 66:32:00
TRACK 50 AUDIO
TITLE "小柄 鬼斬斎"
INDEX 01 67:26:10
TRACK 51 AUDIO
TITLE "タクヤのテーマ"
INDEX 00 68:53:14
INDEX 01 68:54:58
TRACK 52 AUDIO
TITLE "タクヤの舞"
INDEX 01 70:16:71
TRACK 53 AUDIO
TITLE "神主ミカヅキのテーマ"
INDEX 00 70:32:44
INDEX 01 70:34:09
TRACK 54 AUDIO
TITLE "ならず者 出現"
INDEX 00 72:01:71
INDEX 01 72:03:37
TRACK 55 AUDIO
TITLE "ならず者 成敗"
INDEX 01 72:09:04
TRACK 56 AUDIO
TITLE "イダテンと競争 始め"
INDEX 00 72:55:72
INDEX 01 72:57:37
TRACK 57 AUDIO
TITLE "イダテンと競争"
INDEX 01 73:02:30
TRACK 58 AUDIO
TITLE "イダテンと競争 勝利"
INDEX 00 74:13:44
INDEX 01 74:14:08
TRACK 59 AUDIO
TITLE "ハラミ湖"
INDEX 00 74:20:30
INDEX 01 74:22:00


大神 OST Disc2 修正CUE
引用
PERFORMER "上田雅美/近藤嶺/海田明里"
TITLE "大神 OST Disc2"
FILE "Unknown Artist - Unknown Title.ape" WAVE
TRACK 01 AUDIO
TITLE "桜吹雪"
INDEX 01 00:00:00
TRACK 02 AUDIO
TITLE "ミカン爺の花踊り"
INDEX 00 02:22:55
INDEX 01 02:24:20
TRACK 03 AUDIO
TITLE "ついにこの時が来た"
INDEX 00 02:45:53
INDEX 01 02:47:22
TRACK 04 AUDIO
TITLE "ミカンが大きくなった"
INDEX 01 04:43:70
TRACK 05 AUDIO
TITLE "危ないミカン爺"
INDEX 01 04:49:74
TRACK 06 AUDIO
TITLE "ミカン爺 準備完了"
INDEX 01 05:14:07
TRACK 07 AUDIO
TITLE "真神楽"
INDEX 01 05:21:13
TRACK 08 AUDIO
TITLE "まるっきりダメ"
INDEX 00 06:35:25
INDEX 01 06:35:69
TRACK 09 AUDIO
TITLE "サクヤ姫のテーマ"
INDEX 00 06:40:58
INDEX 01 06:42:25
TRACK 10 AUDIO
TITLE "真サクヤ 前半"
INDEX 00 09:39:45
INDEX 01 09:40:11
TRACK 11 AUDIO
TITLE "真サクヤ 後半"
INDEX 01 10:35:40
TRACK 12 AUDIO
TITLE "アガタの森"
INDEX 00 10:47:39
INDEX 01 10:49:03
TRACK 13 AUDIO
TITLE "笛の音"
INDEX 00 14:21:29
INDEX 01 14:22:69
TRACK 14 AUDIO
TITLE "ウシワカのテーマ"
INDEX 00 14:31:73
INDEX 01 14:32:35
TRACK 15 AUDIO
TITLE "ウシワカ登場"
INDEX 01 14:48:62
TRACK 16 AUDIO
TITLE "ウシワカと対峙"
INDEX 00 16:44:07
INDEX 01 16:44:49
TRACK 17 AUDIO
TITLE "ウシワカ演舞~ウシワカと遊ぶ"
INDEX 01 18:04:29
TRACK 18 AUDIO
TITLE "ぼくせんババのテーマ"
INDEX 00 23:49:30
INDEX 01 23:50:70
TRACK 19 AUDIO
TITLE "ツタ巻遺跡"
INDEX 00 25:18:18
INDEX 01 25:19:62
TRACK 20 AUDIO
TITLE "答選坊"
INDEX 00 28:30:37
INDEX 01 28:32:01
TRACK 21 AUDIO
TITLE "蘇る泉"
INDEX 00 29:41:17
INDEX 01 29:42:59
TRACK 22 AUDIO
TITLE "セーブ 其の一"
INDEX 00 30:07:39
INDEX 01 30:09:05
TRACK 23 AUDIO
TITLE "セーブ 其の二"
INDEX 01 30:40:15
TRACK 24 AUDIO
TITLE "待ち構える大妖怪"
INDEX 00 31:54:55
INDEX 01 31:56:20
TRACK 25 AUDIO
TITLE "はてな"
INDEX 00 34:24:42
INDEX 01 34:26:12
TRACK 26 AUDIO
TITLE "アマテラス危機一髪!"
INDEX 01 34:32:44
TRACK 27 AUDIO
TITLE "女郎蜘蛛登場"
INDEX 01 34:41:00
TRACK 28 AUDIO
TITLE "女郎蜘蛛激怒"
INDEX 01 36:44:50
TRACK 29 AUDIO
TITLE "女郎蜘蛛退治"
INDEX 01 37:28:36
TRACK 30 AUDIO
TITLE "見切った!"
INDEX 01 40:45:71
TRACK 31 AUDIO
TITLE "勝ち関"
INDEX 00 40:52:37
INDEX 01 40:53:03
TRACK 32 AUDIO
TITLE "ボス戦クリア"
INDEX 00 41:04:42
INDEX 01 41:05:10
TRACK 33 AUDIO
TITLE "急流下り"
INDEX 00 41:11:65
INDEX 01 41:13:32
TRACK 34 AUDIO
TITLE "コカリ良かったね"
INDEX 00 42:02:14
INDEX 01 42:03:56
TRACK 35 AUDIO
TITLE "クサナギ村 其の一"
INDEX 00 44:17:23
INDEX 01 44:19:05
TRACK 36 AUDIO
TITLE "クサナギ村 其の二"
INDEX 01 47:02:17
TRACK 37 AUDIO
TITLE "八犬士のテーマ"
INDEX 00 50:45:68
INDEX 01 50:47:34
TRACK 38 AUDIO
TITLE "舌切りジジババの家"
INDEX 00 53:07:65
INDEX 01 53:09:33
TRACK 39 AUDIO
TITLE "恐怖!舌切りジジババ"
INDEX 01 55:05:70
TRACK 40 AUDIO
TITLE "チュンジャクのテーマ"
INDEX 00 55:51:15
INDEX 01 55:52:57
TRACK 41 AUDIO
TITLE "スズメ組の親分"
INDEX 00 56:34:67
INDEX 01 56:36:32
TRACK 42 AUDIO
TITLE "スズメのお宿"
INDEX 00 58:00:72
INDEX 01 58:02:38
TRACK 43 AUDIO
TITLE "不可思議な力"
INDEX 00 59:09:25
INDEX 01 59:10:66
TRACK 44 AUDIO
TITLE "コカリの身に何が"
INDEX 00 60:45:52
INDEX 01 60:46:17
TRACK 45 AUDIO
TITLE "畳頭との戦い"
INDEX 00 63:04:68
INDEX 01 63:05:35
TRACK 46 AUDIO
TITLE "弓神さまとの餅つき"
INDEX 00 65:17:47
INDEX 01 65:19:13
TRACK 47 AUDIO
TITLE "赤カブト退治"
INDEX 00 65:39:58
INDEX 01 65:41:22
TRACK 48 AUDIO
TITLE "神への怒り"
INDEX 00 71:17:00
INDEX 01 71:18:40


大神 OST Disc3 修正CUE
引用
PERFORMER "上田雅美/近藤嶺/海田明里"
TITLE "大神 OST Disc3"
FILE "Unknown Artist - Unknown Title.ape" WAVE
TRACK 01 AUDIO
TITLE "百年目"
INDEX 01 00:00:00
TRACK 02 AUDIO
TITLE "骨鏃の破天矢"
INDEX 01 02:32:69
TRACK 03 AUDIO
TITLE "信じる"
INDEX 01 04:38:46
TRACK 04 AUDIO
TITLE "クシナダの決意"
INDEX 01 06:33:64
TRACK 05 AUDIO
TITLE "クシナダを乗せて"
INDEX 01 07:41:52
TRACK 06 AUDIO
TITLE "ウシワカダンス"
INDEX 00 09:59:42
INDEX 01 10:01:07
TRACK 07 AUDIO
TITLE "十六夜の祠"
INDEX 00 10:08:56
INDEX 01 10:10:21
TRACK 08 AUDIO
TITLE "ヤマタノオロチ登場"
INDEX 00 12:23:47
INDEX 01 12:25:11
TRACK 09 AUDIO
TITLE "ヤマタノオロチ退治 其の一"
INDEX 01 12:50:03
TRACK 10 AUDIO
TITLE "クシナダの危機"
INDEX 01 16:21:22
TRACK 11 AUDIO
TITLE "スサノオ登場"
INDEX 01 17:00:20
TRACK 12 AUDIO
TITLE "血盟ノ言葉"
INDEX 01 17:27:05
TRACK 13 AUDIO
TITLE "真スサノオ"
INDEX 01 18:49:01
TRACK 14 AUDIO
TITLE "ヤマタノオロチ退治 其の二"
INDEX 01 20:18:30
TRACK 15 AUDIO
TITLE "時は来た"
INDEX 01 23:50:00
TRACK 16 AUDIO
TITLE "七字の印契"
INDEX 01 24:47:73
TRACK 17 AUDIO
TITLE "衝天七生"
INDEX 01 26:02:61
TRACK 18 AUDIO
TITLE "見詰め合う二人"
INDEX 00 26:25:02
INDEX 01 26:25:45
TRACK 19 AUDIO
TITLE "神木祭り"
INDEX 00 28:02:16
INDEX 01 28:03:59
TRACK 20 AUDIO
TITLE "両島原 其の一"
INDEX 00 29:30:18
INDEX 01 29:31:58
TRACK 21 AUDIO
TITLE "両島原 其の二"
INDEX 01 32:19:22
TRACK 22 AUDIO
TITLE "呪われた西安京"
INDEX 00 35:27:22
INDEX 01 35:28:63
TRACK 23 AUDIO
TITLE "もっとここ掘れワンワン"
INDEX 00 37:49:39
INDEX 01 37:51:08
TRACK 24 AUDIO
TITLE "ツヅラオのテーマ"
INDEX 00 39:29:64
INDEX 01 39:31:32
TRACK 25 AUDIO
TITLE "乱心の水龍"
INDEX 00 41:30:23
INDEX 01 41:31:63
TRACK 26 AUDIO
TITLE "西安京 貴族街 其の一"
INDEX 00 42:44:41
INDEX 01 42:46:12
TRACK 27 AUDIO
TITLE "西安京 貴族街 其の二"
INDEX 01 44:50:52
TRACK 28 AUDIO
TITLE "西安京 庶民街 其の一"
INDEX 00 47:42:40
INDEX 01 47:44:09
TRACK 29 AUDIO
TITLE "西安京 庶民街 其の二"
INDEX 01 49:50:31
TRACK 30 AUDIO
TITLE "お使い"
INDEX 00 52:46:33
INDEX 01 52:48:00
TRACK 31 AUDIO
TITLE "楽しい御絵描"
INDEX 00 53:35:64
INDEX 01 53:37:28
TRACK 32 AUDIO
TITLE "椿神楽"
INDEX 00 54:07:30
INDEX 01 54:09:00
TRACK 33 AUDIO
TITLE "満開の桜"
INDEX 01 54:21:16
TRACK 34 AUDIO
TITLE "カグヤのテーマ 其の一"
INDEX 00 54:30:35
INDEX 01 54:31:01
TRACK 35 AUDIO
TITLE "カグヤのテーマ 其の二"
INDEX 01 55:38:41
TRACK 36 AUDIO
TITLE "鉄のタケノコ 発射"
INDEX 00 57:26:26
INDEX 01 57:26:68
TRACK 37 AUDIO
TITLE "カグヤの旅立ち"
INDEX 01 57:35:63
TRACK 38 AUDIO
TITLE "女王ヒミコの神殿"
INDEX 00 59:54:03
INDEX 01 59:55:43
TRACK 39 AUDIO
TITLE "蚊帳の奥"
INDEX 01 61:28:54
TRACK 40 AUDIO
TITLE "女王ヒミコの悲しみ"
INDEX 01 62:50:11
TRACK 41 AUDIO
TITLE "シャチ丸のテーマ"
INDEX 00 64:51:64
INDEX 01 64:53:28
TRACK 42 AUDIO
TITLE "滑った"
INDEX 01 67:37:52
TRACK 43 AUDIO
TITLE "ずっと一緒だジ!"
INDEX 00 67:42:00
INDEX 01 67:42:39
TRACK 44 AUDIO
TITLE "不思議の泉"
INDEX 00 68:39:53
INDEX 01 68:41:20
TRACK 45 AUDIO
TITLE "釣りの手伝い"
INDEX 00 70:52:72
INDEX 01 70:54:39
TRACK 46 AUDIO
TITLE "イッスンで遊ぼう"
INDEX 00 72:39:44
INDEX 01 72:41:08
TRACK 47 AUDIO
TITLE "竜宮"
INDEX 00 73:08:57
INDEX 01 73:10:23
TRACK 48 AUDIO
TITLE "水龍の体内"
INDEX 00 75:37:13
INDEX 01 75:38:51
TRACK 49 AUDIO
TITLE "水龍の体内 脱出"
INDEX 01 78:10:28


大神 OST Disc4 修正CUE
引用
TITLE "大神 OST Disc4"
FILE "Unknown Artist - Unknown Title.ape" WAVE
TRACK 01 AUDIO
TITLE "鬼々島"
PERFORMER "上田雅美/近藤嶺/海田明里"
INDEX 01 00:00:00
TRACK 02 AUDIO
TITLE "妖魔王 キュウビ退治"
PERFORMER "上田雅美/近藤嶺/海田明里"
INDEX 00 03:12:20
INDEX 01 03:13:61
TRACK 03 AUDIO
TITLE "オキクルミのテーマ"
PERFORMER "上田雅美/近藤嶺/海田明里"
INDEX 00 06:37:16
INDEX 01 06:38:58
TRACK 04 AUDIO
TITLE "極北の国 カムイ 其の一"
PERFORMER "上田雅美/近藤嶺/海田明里"
INDEX 00 08:39:34
INDEX 01 08:40:67
TRACK 05 AUDIO
TITLE "極北の国 カムイ 其の二"
PERFORMER "上田雅美/近藤嶺/海田明里"
INDEX 01 10:44:12
TRACK 06 AUDIO
TITLE "ウエペケレ 其の一"
PERFORMER "上田雅美/近藤嶺/海田明里"
INDEX 00 13:21:33
INDEX 01 13:22:72
TRACK 07 AUDIO
TITLE "ウエペケレ 其の二"
PERFORMER "上田雅美/近藤嶺/海田明里"
INDEX 01 15:31:19
TRACK 08 AUDIO
TITLE "オキクルミの宿命"
PERFORMER "上田雅美/近藤嶺/海田明里"
INDEX 00 18:12:05
INDEX 01 18:13:46
TRACK 09 AUDIO
TITLE "シャクヤのテーマ"
PERFORMER "上田雅美/近藤嶺/海田明里"
INDEX 00 19:46:45
INDEX 01 19:48:13
TRACK 10 AUDIO
TITLE "神木村の悲しい風習"
PERFORMER "上田雅美/近藤嶺/海田明里"
INDEX 00 20:57:24
INDEX 01 20:58:64
TRACK 11 AUDIO
TITLE "エゾフジ イリワク神殿"
PERFORMER "上田雅美/近藤嶺/海田明里"
INDEX 00 23:22:55
INDEX 01 23:24:22
TRACK 12 AUDIO
TITLE "本当の強さ"
PERFORMER "上田雅美/近藤嶺/海田明里"
INDEX 00 27:26:21
INDEX 01 27:27:61
TRACK 13 AUDIO
TITLE "勇者オキクルミ"
PERFORMER "上田雅美/近藤嶺/海田明里"
INDEX 01 28:43:74
TRACK 14 AUDIO
TITLE "双魔神 モシレチク コタネチク退治"
PERFORMER "上田雅美/近藤嶺/海田明里"
INDEX 00 30:25:28
INDEX 01 30:26:65
TRACK 15 AUDIO
TITLE "双魔神の魔術"
PERFORMER "上田雅美/近藤嶺/海田明里"
INDEX 01 35:08:01
TRACK 16 AUDIO
TITLE "約束"
PERFORMER "上田雅美/近藤嶺/海田明里"
INDEX 00 35:38:43
INDEX 01 35:40:11
TRACK 17 AUDIO
TITLE "別れの時"
PERFORMER "上田雅美/近藤嶺/海田明里"
INDEX 01 38:05:41
TRACK 18 AUDIO
TITLE "覚悟なき者"
PERFORMER "上田雅美/近藤嶺/海田明里"
INDEX 01 39:27:49
TRACK 19 AUDIO
TITLE "ウシワカ 最後のダンス"
PERFORMER "上田雅美/近藤嶺/海田明里"
INDEX 00 40:46:03
INDEX 01 40:46:46
TRACK 20 AUDIO
TITLE "天神族のテーマ"
PERFORMER "上田雅美/近藤嶺/海田明里"
INDEX 00 41:01:53
INDEX 01 41:03:18
TRACK 21 AUDIO
TITLE "玄冬の蝕"
PERFORMER "上田雅美/近藤嶺/海田明里"
INDEX 00 43:49:02
INDEX 01 43:50:43
TRACK 22 AUDIO
TITLE "沈む太陽"
PERFORMER "上田雅美/近藤嶺/海田明里"
INDEX 01 44:59:42
TRACK 23 AUDIO
TITLE "ウシワカの宿命"
PERFORMER "上田雅美/近藤嶺/海田明里"
INDEX 01 46:09:26
TRACK 24 AUDIO
TITLE "月の民のテーマ"
PERFORMER "上田雅美/近藤嶺/海田明里"
INDEX 01 47:07:38
TRACK 25 AUDIO
TITLE "常闇ノ皇"
PERFORMER "上田雅美/近藤嶺/海田明里"
INDEX 00 48:16:01
INDEX 01 48:16:48
TRACK 26 AUDIO
TITLE "「Reset」~「ありがとう」バージョン~"
PERFORMER "上田雅美/近藤嶺/海田明里"
INDEX 00 56:07:18
INDEX 01 56:07:57
TRACK 27 AUDIO
TITLE "大神 白野威"
PERFORMER "上田雅美/近藤嶺/海田明里"
INDEX 01 61:29:43
TRACK 28 AUDIO
TITLE "太陽は昇る"
PERFORMER "上田雅美/近藤嶺/海田明里"
INDEX 01 63:55:15
TRACK 29 AUDIO
TITLE "旅は続く"
PERFORMER "上田雅美/近藤嶺/海田明里"
INDEX 00 69:35:60
INDEX 01 69:37:24
TRACK 30 AUDIO
TITLE "タカマガハラへ"
PERFORMER "上田雅美/近藤嶺/海田明里"
INDEX 01 71:14:07
TRACK 31 AUDIO
TITLE "「Reset」"
PERFORMER "平原綾香"
INDEX 00 71:48:68
INDEX 01 71:50:33
TRACK 32 AUDIO
TITLE "おしまい"
PERFORMER "上田雅美/近藤嶺/海田明里"
INDEX 00 76:01:13
INDEX 01 76:02:58


大神 OST Disc5 修正CUE
引用
PERFORMER "上田雅美/近藤嶺/海田明里"
TITLE "大神 OST Disc5"
FILE "Unknown Artist - Unknown Title.ape" WAVE
TRACK 01 AUDIO
TITLE "四葉出現"
INDEX 01 00:00:00
TRACK 02 AUDIO
TITLE "アイテム取得"
INDEX 00 00:05:30
INDEX 01 00:06:71
TRACK 03 AUDIO
TITLE "アイテムを渡す"
INDEX 00 00:14:54
INDEX 01 00:16:19
TRACK 04 AUDIO
TITLE "宝箱出現"
INDEX 00 00:23:60
INDEX 01 00:25:25
TRACK 05 AUDIO
TITLE "貴重品取得"
INDEX 00 00:32:45
INDEX 01 00:34:10
TRACK 06 AUDIO
TITLE "レベルアップ"
INDEX 00 00:42:57
INDEX 01 00:44:20
TRACK 07 AUDIO
TITLE "神降ろし 其の一"
INDEX 00 00:50:03
INDEX 01 00:51:43
TRACK 08 AUDIO
TITLE "神降ろし 其の二"
INDEX 00 01:01:02
INDEX 01 01:02:43
TRACK 09 AUDIO
TITLE "神降ろし 其の三"
INDEX 00 01:11:54
INDEX 01 01:13:22
TRACK 10 AUDIO
TITLE "小当たり"
INDEX 00 01:24:16
INDEX 01 01:25:57
TRACK 11 AUDIO
TITLE "中当たり"
INDEX 00 01:31:01
INDEX 01 01:32:42
TRACK 12 AUDIO
TITLE "大当たり"
INDEX 00 01:38:18
INDEX 01 01:39:58
TRACK 13 AUDIO
TITLE "特大当たり"
INDEX 00 01:48:31
INDEX 01 01:49:71
TRACK 14 AUDIO
TITLE "奇跡"
INDEX 00 02:00:41
INDEX 01 02:02:06
TRACK 15 AUDIO
TITLE "昇天"
INDEX 00 02:09:25
INDEX 01 02:10:65
TRACK 16 AUDIO
TITLE "童謡 其の一"
INDEX 00 02:26:28
INDEX 01 02:27:66
TRACK 17 AUDIO
TITLE "童謡 其の二"
INDEX 00 02:43:49
INDEX 01 02:45:13
TRACK 18 AUDIO
TITLE "童謡 其の三"
INDEX 00 03:01:11
INDEX 01 03:02:50
TRACK 19 AUDIO
TITLE "社内プレゼン Type A"
INDEX 00 03:18:08
INDEX 01 03:20:43
TRACK 20 AUDIO
TITLE "社内プレゼン Type B"
INDEX 00 04:01:30
INDEX 01 04:02:69
TRACK 21 AUDIO
TITLE "クローバースタジオ設立発表会"
INDEX 00 04:50:06
INDEX 01 04:51:48
TRACK 22 AUDIO
TITLE "2004年東京ゲームショウ プロモーション"
INDEX 00 07:24:05
INDEX 01 07:25:47
TRACK 23 AUDIO
TITLE "2005年E3 プロモーション"
INDEX 00 10:15:61
INDEX 01 10:17:28
TRACK 24 AUDIO
TITLE "2005年東京ゲームショウ プロモーション"
INDEX 00 13:21:54
INDEX 01 13:23:20
TRACK 25 AUDIO
TITLE "大神イメージ曲 プロトタイプ 其の一"
INDEX 00 16:39:44
INDEX 01 16:41:07
TRACK 26 AUDIO
TITLE "大神イメージ曲 プロトタイプ 其の二"
INDEX 00 19:11:24
INDEX 01 19:12:64
TRACK 27 AUDIO
TITLE "大神イメージ曲 プロトタイプ 其の三"
INDEX 00 22:27:59
INDEX 01 22:29:26
TRACK 28 AUDIO
TITLE "ウエペケレ 原型バージョン 其の一"
INDEX 00 26:20:14
INDEX 01 26:21:56
TRACK 29 AUDIO
TITLE "ウエペケレ 原型バージョン 其の二"
INDEX 01 28:38:02
TRACK 30 AUDIO
TITLE "お後は次の お楽しみ"
INDEX 00 31:14:08
INDEX 01 31:16:47



专辑曲目

Disc1.ヤマタノオロチ编

1.タイトル
2.タイトルコール
3.始まり
4.プロローグ
5.悪巧み
6.ヤマタノオロチ复活
7.大神アマテラス复活
8.オイラのテーマ
9.呪い
10.イザナギ窟
11.星空を见上げる
12.星座(画龙)
13.星座完成
14.笔神登场
15.笔神との会话
16.笔しらべ
17.画龙成功
18.神隠し
19.神木村复活
20.ミカン爷登场
21.物の怪の気配
22.妖怪退治
23.戦闘评価(神)
24.神木村 其の一
25.神木村 其の二
26.ここ掘れワンワン
27.変な形の大根
28.修行をサボるスサノオ
29.スサノオを乗せる
30.エサをお食べ
31.スサノオの锻錬
32.スサノオ焦る
33.大岩斩り成功
34.呪われた神州平原 其の一
35.呪われた神州平原 其の二
36.呪われた花咲谷
37.天邪鬼の宴
38.ネムリのテーマ
39.张り切るスサノオ 前半
40.张り切るスサノオ 后半
41.スサノオの戦い
42.塞の芽复活
43.花咲谷复活
44.花咲谷
45.タタリ场
46.大神降ろし
47.神州平原 其の一
48.神州平原 其の二
49.道场入り口
50.小柄 鬼斩斎
51.タマヤのテーマ
52.タマヤの舞
53.神主ミカヅキのテーマ
54.ならず者 出现
55.ならず者 成败
56.イダテンと竞争 始め
57.イダテンと竞争
58.イダテンと竞争 胜利
59.ハラミ湖

Disc2.赤カブト编

1.桜吹雪
2.ミカン爷の花踊り
3.ついにこの时が来た
4.ミカンが大きくなった
5.危ないミカン爷
6.ミカン爷 準备完了
7.真神楽
8.まるっきりダメ
9.サクヤ姫のテーマ
10.真サクヤ 前半
11.真サクヤ 后半
12.アガタの森
13.笛の音
14.ウシワカのテーマ
15.ウシワカ登场
16.ウシワカと対峙
17.ウシワカ演舞~ウシワカと游ぶ
18.ぼくせんババのテーマ
19.ツタ巻遗迹
20.答选坊
21.苏る泉
22.セーブ 其の一
23.セーブ 其の二
24.待ち构える大妖怪
25.はてな
26.アマテラス危机一髪!
27.女郎蜘蛛登场
28.女郎蜘蛛激怒
29.女郎蜘蛛退治
30.见切った!
31.胜ち鬨
32.ボス戦クリア
33.急流下り
34.コカリ良かったね
35.クサナギ村 其の一
36.クサナギ村 其の二
37.八犬士のテーマ
38.舌切りジジババの家
39.恐怖!舌切りジジババ
40.チュンジャクのテーマ
41.スズメ组みの亲分
42.スズメのお宿
43.不可思议な力
44.コカリの身に何が
45.畳头との戦い
46.弓神さまとの饼つき
47.赤カブト退治
48.神への怒り

Disc3.水龙编

1.百年目
2.骨鏃の破天矢
3.信じる
4.クシナダの决意
5.クシナダを乗せて
6.ウシワカダンス
7.十六夜の祠
8.ヤマタノオロチ登场
9.ヤマタノオロチ退治 其の一
10.クシナダの危机
11.スサノオ登场
12.血盟の言叶
13.真スサノオ
14.ヤマタノオロチ退治 其の二
15.时は来た
16.七字の印契
17.衝天七生
18.见詰め合う二人
19.神木祭り
20.両岛原 其の一
21.両岛原 其の二
22.呪われた西安京
23.もっとここ掘れワンワン
24.ツヅラオのテーマ
25.乱心の水龙
26.西安京 贵族街 其の一
27.西安京 贵族街 其の二
28.西安京 庶民街 其の一
29.西安京 庶民街 其の二
30.お使い
31.楽しい御絵描
32.椿神楽
33.満开の桜
34.カグヤのテーマ 其の一
35.カグヤのテーマ 其の二
36.鉄のタケノコ 発射
37.カグヤの旅立ち
38.女王ヒミコの神殿
39.蚊帐の奥
40.女王ヒミコの悲しみ
41.シャチ丸のテーマ
42.滑った
43.ずっと一绪だジ!
44.不思议の泉
45.钓りの手伝い
46.イッスンで游ぼう
47.龙宫
48.水龙の体内
49.水龙の体内 脱出

Disc4.ラスト

1.鬼ヶ岛
2.妖魔王キュウビ退治
3.オキクルミのテーマ
4.极北の国 カムイ 其の一
5.极北の国 カムイ 其の二
6.ウエペケレ 其の一
7.ウエペケレ 其の二
8.オキクルミの宿命
9.シャクヤのテーマ
10.神木村の悲しい风习
11.エゾフジ イリワク神殿
12.本当の强さ
13.勇者オキクルミ
14.双魔神 モシレチク コタネチク退治
15.双魔神の魔术
16.约束
17.别れの时
18.覚悟なき者
19.ウシワカ 最后のダンス
20.天神族のテーマ
21.玄冬の蚀
22.沈む太阳
23.ウシワカの宿命
24.月の民のテーマ
25.常闇ノ皇
26.「Reset」~「ありがとう」バージョン~
27.大神 白野威
28.太阳は昇る
29.旅は続く
30.タカマガハラへ
31.「Reset」
32.おしまい

Disc5.イメージ曲

1.四叶出现
2.アイテム取得
3.アイテムを渡す
4.宝箱出现
5.贵重品取得
6.レベルアップ
7.神降ろし 其の一
8.神降ろし 其の二
9.神降ろし 其の三
10.小当たり
11.中当たり
12.大当たり
13.特大当たり
14.奇迹
15.昇天
16.童歌 其の一
17.童歌 其の二
18.童歌 其の三
19.社内プレゼン Type A
20.社内プレゼン Type B
21.クロバースタジオ设立発表会
22.2004年东京ゲームショウ プロモーション
23.2005年E3 プロモーション
24.2005年东京ゲームショウ プロモーション
25.大神イメージ曲 プロトタイプ 其の一
26.大神イメージ曲 プロトタイプ 其の二
27.大神イメージ曲 プロトタイプ 其の三
28.ウエペケレ原型バージョン 其の一
29.ウエペケレ原型バージョン 其の二
30.お后は次の お楽しみ

大神钢琴混音大碟

01.呪われた神州平原
02.カグヤの旅立ち
03.シャチ丸のテーマ
04.水龍の体内
05.ウエペケレ
06.天神族のテーマ
07.常闇ノ皇
08.太陽は昇る
09.旅は続く
10.Reset

正在读取……

这里是其它用户补充的资源(我也要补充):

暂无补充资源
正在加载,请稍等...

点击查看所有45网友评论

 

(?) [公告]留口水、评论相关规则 | [活动]每日签到 轻松领取电驴经验

    小贴士:
  1. 类似“顶”、“沙发”之类没有营养的文字,对勤劳贡献的楼主来说是令人沮丧的反馈信息。
  2. 提问之前请再仔细看一遍楼主的说明,或许是您遗漏了。
  3. 勿催片。请相信驴友们对分享是富有激情的,如果确有更新版本,您一定能搜索到。
  4. 请勿到处挖坑绊人、招贴广告。既占空间让人厌烦,又没人会搭理,于人于己都无利。
  5. 如果您发现自己的评论不见了,请参考以上4条。