v

您的位置:VeryCD音乐华语音乐

音乐资源事务区


蔡琴 -《蔡琴2004银色月光下演唱会》(Under The Moon Light)HDCD[APE]

  • 状态: 精华资源
  • 摘要:
    发行时间2004年
    地区大陆
    语言普通话
  • 时间: 2007/10/01 08:02:16 发布 | 2007/10/03 13:32:50 更新
  • 分类: 音乐  华语音乐 

大头猫米

精华资源: 77

全部资源: 82

相关: 分享到新浪微博   转播到腾讯微博   分享到开心网   分享到人人   分享到QQ空间   订阅本资源RSS更新   美味书签  subtitle
该内容尚未提供权利证明,无法提供下载。
专辑中文名蔡琴2004银色月光下演唱会
专辑英文名Under The Moon Light
歌手蔡琴
资源格式APE
版本HDCD
发行时间2004年
地区大陆
语言普通话
简介

IPB Image


专辑介绍:

这张是蔡琴2004银色月光下演唱会的HDCD(2CD),音质一流。
曲目上和VeryCD之前的mp3版本略有不同,没有talking部分,清唱部分也合为一首。
由广东音像出版社出版,天艺音像制品有限公司总经销。

在这场演唱会之前,蔡琴发布了其个人专辑《银色月光下》,相比《银色月光下演唱会》,笔者感觉演唱会的版本听起来更舒服,毕竟有实力的歌手的live总是能比唱片更有感觉。多余的废话不多说了,确实非常经典的一张演唱会。脍炙人口的民歌,在蔡琴的演绎下别有风味。当然也少不了蔡琴自己的经典曲目了,最后的万人大合唱《恰似你的温柔》颇有一种感天动地的味道。HDCD,eac完美抓轨,log以及cue文本详见论坛2楼以及3楼的回帖。

PS:CD中的那首清唱是分为三首,三个音轨哦,属于正常现象.
补充:由于唱片发行商本身的失误,印错了曲目,导致我的cue也错误,CD2的cue应该更正为

REM GENRE 民谣
REM DATE 2004
PERFORMER "蔡琴"
TITLE "2004银色月光下演唱会 CD2"
FILE "蔡琴.-.[银色月光下(演唱会)CD2].专辑.(ape).ape" WAVE
TRACK 01 AUDIO
TITLE "康定情歌"
INDEX 01 00:00:00
TRACK 02 AUDIO
TITLE "康定情歌+青春舞曲"
INDEX 00 04:24:22
INDEX 01 04:24:30
TRACK 03 AUDIO
TITLE "乐队介绍"
INDEX 00 11:56:23
INDEX 01 11:56:40
TRACK 04 AUDIO
TITLE "歌声与微笑"
INDEX 01 17:16:20
TRACK 05 AUDIO
TITLE "你的眼神"
INDEX 01 22:16:16
TRACK 06 AUDIO
TITLE "出塞曲"
INDEX 01 25:17:53
TRACK 07 AUDIO
TITLE "读你"
INDEX 01 28:23:33
TRACK 08 AUDIO
TITLE "不了情"
INDEX 00 31:27:35
INDEX 01 31:27:45
TRACK 09 AUDIO
TITLE "最后一夜"
INDEX 00 36:42:10
INDEX 01 36:42:18
TRACK 10 AUDIO
TITLE "清唱歌曲"
INDEX 01 41:01:54
TRACK 11 AUDIO
TITLE "清唱歌曲"
INDEX 00 44:54:62
INDEX 01 44:54:72
TRACK 12 AUDIO
TITLE "恰似你的温柔"
INDEX 01 48:41:65

免责声明:本专辑资源仅供试听,所有版权归原唱片公司及发行商所有,支持华语音乐,请购买正版。

分享团队:[color=Red]HDLF高清雷锋



专辑曲目

CD1
01.序言
02.在那遥远的地方
03.银色月光下
04.月亮代表我的心
05.可爱的玫瑰花
06.花针引线线穿针
07.茉莉花
08.被遗忘的时光
09.绿岛小夜曲
10.弯弯的月亮
11.我的兄弟姐妹
12.小城故事
13.走西口
14.敖包相会
15.跟我说爱我
CD2
01.康定情歌
02.康定情歌/青春舞曲
03.歌声与微笑(庆典版)
04.你的眼神
05.出塞曲
06.读你
07.不了情
08.最后一夜
09.清唱歌曲
10.恰似你的温柔

正在读取……

这里是其它用户补充的资源(我也要补充):

暂无补充资源
正在加载,请稍等...

点击查看所有18网友评论

 

(?) [公告]留口水、评论相关规则 | [活动]每日签到 轻松领取电驴经验

    小贴士:
  1. 类似“顶”、“沙发”之类没有营养的文字,对勤劳贡献的楼主来说是令人沮丧的反馈信息。
  2. 提问之前请再仔细看一遍楼主的说明,或许是您遗漏了。
  3. 勿催片。请相信驴友们对分享是富有激情的,如果确有更新版本,您一定能搜索到。
  4. 请勿到处挖坑绊人、招贴广告。既占空间让人厌烦,又没人会搭理,于人于己都无利。
  5. 如果您发现自己的评论不见了,请参考以上4条。