v

您的位置:VeryCD音乐华语音乐

音乐资源事务区


水木年华 -《毕业纪念册》[FLAC]

  • 状态: 精华资源
  • 摘要:
    发行时间2004年06月
    地区大陆
    语言普通话
  • 时间: 2007/08/16 12:34:53 发布 | 2007/08/20 00:20:17 更新
  • 分类: 音乐  华语音乐 

netcmcc

精华资源: 3

全部资源: 3

相关: 分享到新浪微博   转播到腾讯微博   分享到开心网   分享到人人   分享到QQ空间   订阅本资源RSS更新   美味书签  subtitle
该内容尚未提供权利证明,无法提供下载。
专辑中文名毕业纪念册
歌手水木年华
版本[FLAC]
发行时间2004年06月
地区大陆
语言普通话
简介

IPB Image


专辑介绍:

  这是第一张献给毕业生的专辑。记载着懵懂岁月的痕迹,铭刻着青春相聚的日子。

  现在的水木年华由卢庚戌和缪杰组成,延续了水木年华一贯的清新曲风,流畅旋律,以及略带忧伤的演绎。缪杰出色的高音,以及卢庚戌自己本身的嗓音所追求的技巧融合情感的变化在专辑中体现的淋漓尽致。

  这张专辑特别收录了水木年华的新曲《我们的歌》和卢庚戌从未发表之处女作《成长》。

  特别赠送:精美同学留言簿&通讯录

代码
PERFORMER "水木年华"
TITLE "毕业纪念册"
FILE "水木年华.-.[毕业纪念册].专辑.(FLAC).flac" WAVE
  TRACK 01 AUDIO
    TITLE "蝴蝶花"
    PERFORMER "水木年华"
    FLAGS DCP
    INDEX 01 00:00:00
  TRACK 02 AUDIO
    TITLE "一生有你"
    PERFORMER "水木年华"
    FLAGS DCP
    INDEX 00 03:54:49
    INDEX 01 03:56:25
  TRACK 03 AUDIO
    TITLE "你们"
    PERFORMER "水木年华"
    FLAGS DCP
    INDEX 00 08:13:16
    INDEX 01 08:15:18
  TRACK 04 AUDIO
    TITLE "老屋"
    PERFORMER "水木年华"
    FLAGS DCP
    INDEX 00 11:14:45
    INDEX 01 11:16:46
  TRACK 05 AUDIO
    TITLE "在他乡"
    PERFORMER "水木年华"
    FLAGS DCP
    INDEX 00 15:53:06
    INDEX 01 15:54:60
  TRACK 06 AUDIO
    TITLE "再见了最爱的人"
    PERFORMER "水木年华"
    FLAGS DCP
    INDEX 00 19:31:62
    INDEX 01 19:33:55
  TRACK 07 AUDIO
    TITLE "今天我们要走了"
    PERFORMER "水木年华"
    FLAGS DCP
    INDEX 00 23:48:07
    INDEX 01 23:50:05
  TRACK 08 AUDIO
    TITLE "我们的歌"
    PERFORMER "水木年华"
    FLAGS DCP
    INDEX 00 27:14:64
    INDEX 01 27:16:64
  TRACK 09 AUDIO
    TITLE "成长"
    PERFORMER "水木年华"
    FLAGS DCP
    INDEX 00 30:51:00
    INDEX 01 30:52:55
  TRACK 10 AUDIO
    TITLE "我们去远方"
    PERFORMER "水木年华"
    FLAGS DCP
    INDEX 00 35:51:63
    INDEX 01 35:52:54
  TRACK 11 AUDIO
    TITLE "在他乡(Karaoke)"
    PERFORMER "水木年华"
    FLAGS DCP
    INDEX 00 38:57:10
    INDEX 01 38:58:69
  TRACK 12 AUDIO
    TITLE "一生有你(Karaoke)"
    PERFORMER "水木年华"
    FLAGS DCP
    INDEX 00 42:37:33
    INDEX 01 42:39:14
  TRACK 13 AUDIO
    TITLE "再见了最爱的人(Karaoke)"
    PERFORMER "水木年华"
    FLAGS DCP
    INDEX 00 46:54:10
    INDEX 01 46:56:13



专辑曲目

01 蝴蝶花
02 一生有你
03 你们
04 老屋
05 在他乡
06 再见了最爱的人
07 今天我们要走了
08 我们的歌
09 成长
10 我们去远方
11 在他乡(伴奏版本)
12 一生有你(伴奏版本)
13 再见了最爱的人(伴奏版本)

正在读取……

这里是其它用户补充的资源(我也要补充):

暂无补充资源
正在加载,请稍等...

点击查看所有42网友评论

 

(?) [公告]留口水、评论相关规则 | [活动]每日签到 轻松领取电驴经验

    小贴士:
  1. 类似“顶”、“沙发”之类没有营养的文字,对勤劳贡献的楼主来说是令人沮丧的反馈信息。
  2. 提问之前请再仔细看一遍楼主的说明,或许是您遗漏了。
  3. 勿催片。请相信驴友们对分享是富有激情的,如果确有更新版本,您一定能搜索到。
  4. 请勿到处挖坑绊人、招贴广告。既占空间让人厌烦,又没人会搭理,于人于己都无利。
  5. 如果您发现自己的评论不见了,请参考以上4条。