v

您的位置:VeryCD音乐原声音乐

音乐资源事务区


堀山俊彦 -《逆转裁判4》(Gyakuten Saiban 4 OST)[APE]

  • 状态: 精华资源
  • 摘要:
    发行时间2007年06月27日
  • 时间: 2007/08/01 01:46:49 发布 | 2007/11/17 15:39:00 更新
  • 分类: 音乐  原声音乐 

jason_jiang

精华资源: 53

全部资源: 54

相关: 分享到新浪微博   转播到腾讯微博   分享到开心网   分享到人人   分享到QQ空间   订阅本资源RSS更新   美味书签  subtitle
该内容尚未提供权利证明,无法提供下载。
专辑中文名逆转裁判4
专辑英文名Gyakuten Saiban 4 OST
别名逆転裁判4 オリジナル·サウンドトラック
艺术家堀山俊彦
资源格式APE
发行时间2007年06月27日
地区日本
语言日语
简介

IPB Image


专辑介绍:

《逆转裁判》系列是日本CAPCOM公司发行的法庭辩论AVG,玩家将扮演一位初登法律界的辩护律师,进行一系列的取证、推理。在法庭上与证人对峙,与犯人周旋,从各种证词中找出案件的关键所在。《逆4》的故事为《逆3》的7年后,主角由系列作老班底的成步堂龙一,换成了初出茅庐的热血新手律师·王泥喜法介,女主角则是位能施展神奇魔术的神秘魔术师·美贯,其余玩家所熟悉的角色,也会在游戏中一一登场。

这张CD是游戏的OST,收录了所有游戏配乐。下载后请用记事本打开CUE文件,把以下CUE粘贴进去,换掉原来的CUE。记得在最后一行加个回车。

引用
TITLE "逆転裁判4 オリジナル・サウンドトラック"
FILE "CDImage.ape" WAVE
TRACK 01 AUDIO
TITLE "逆転裁判4.序章"
PERFORMER "堀山俊彦"
ISRC JPE100701310
INDEX 01 00:00:00
TRACK 02 AUDIO
TITLE "法廷休憩室 ~新たなる序曲"
PERFORMER "堀山俊彦"
ISRC JPE100701320
INDEX 00 00:43:26
INDEX 01 00:45:13
TRACK 03 AUDIO
TITLE "逆転裁判4.開廷"
PERFORMER "堀山俊彦"
ISRC JPE100701330
INDEX 00 01:54:38
INDEX 01 01:56:26
TRACK 04 AUDIO
TITLE "尋問 ~モデラート 2007"
PERFORMER "堀山俊彦"
ISRC JPE100701340
INDEX 00 04:00:26
INDEX 01 04:02:13
TRACK 05 AUDIO
TITLE "トランス.ロジック"
PERFORMER "堀山俊彦"
ISRC JPE100701350
INDEX 00 05:20:42
INDEX 01 05:22:30
TRACK 06 AUDIO
TITLE "王泥喜 法介 ~新章開廷!"
PERFORMER "堀山俊彦"
ISRC JPE100701360
INDEX 00 07:09:08
INDEX 01 07:10:70
TRACK 07 AUDIO
TITLE "尋問 ~アレグロ 2007"
PERFORMER "堀山俊彦"
ISRC JPE100701370
INDEX 00 08:45:08
INDEX 01 08:46:71
TRACK 08 AUDIO
TITLE "真実は告げる 2007"
PERFORMER "堀山俊彦"
ISRC JPE100701380
INDEX 00 10:27:71
INDEX 01 10:29:58
TRACK 09 AUDIO
TITLE "スリルのテーマ ~サスペンス"
PERFORMER "堀山俊彦"
ISRC JPE100701390
INDEX 00 11:27:32
INDEX 01 11:29:19
TRACK 10 AUDIO
TITLE "みぬく ~ほとばしれ、視線"
PERFORMER "堀山俊彦"
ISRC JPE100701400
INDEX 00 12:16:36
INDEX 01 12:18:24
TRACK 11 AUDIO
TITLE "追求 ~追いつめないと"
PERFORMER "堀山俊彦"
ISRC JPE100701410
INDEX 00 13:17:53
INDEX 01 13:19:41
TRACK 12 AUDIO
TITLE "ジングル ~今日はここまで"
PERFORMER "堀山俊彦"
ISRC JPE100701420
INDEX 00 15:06:53
INDEX 01 15:08:41
TRACK 13 AUDIO
TITLE "みぬきのテーマ ~魔術の子"
PERFORMER "堀山俊彦"
ISRC JPE100701430
INDEX 00 15:14:23
INDEX 01 15:16:11
TRACK 14 AUDIO
TITLE "牙琉 響也 ~LOVE LOVE GUILTY"
PERFORMER "堀山俊彦"
ISRC JPE100701440
INDEX 00 16:50:02
INDEX 01 16:51:65
TRACK 15 AUDIO
TITLE "宝月茜 ~カガクの刑事"
PERFORMER "堀山俊彦"
ISRC JPE100701450
INDEX 00 18:28:54
INDEX 01 18:30:41
TRACK 16 AUDIO
TITLE "捜査 ~序盤 2007"
PERFORMER "堀山俊彦"
ISRC JPE100701460
INDEX 00 19:55:65
INDEX 01 19:57:52
TRACK 17 AUDIO
TITLE "留置所 ~面会の悲喜劇"
PERFORMER "堀山俊彦"
ISRC JPE100701470
INDEX 00 21:24:74
INDEX 01 21:26:62
TRACK 18 AUDIO
TITLE "『逆転連鎖の街角』"
PERFORMER "堀山俊彦"
ISRC JPE100701480
INDEX 00 25:05:37
INDEX 01 25:07:24
TRACK 19 AUDIO
TITLE "エキセントリック 2007"
PERFORMER "堀山俊彦"
ISRC JPE100701490
INDEX 00 25:38:22
INDEX 01 25:40:10
TRACK 20 AUDIO
TITLE "キタキツネ一家"
PERFORMER "堀山俊彦"
ISRC JPE100701500
INDEX 00 27:20:71
INDEX 01 27:22:58
TRACK 21 AUDIO
TITLE "着信メロディ/LOVE LOVE GUILTY"
PERFORMER "堀山俊彦"
ISRC JPE100701510
INDEX 00 29:28:30
INDEX 01 29:30:18
TRACK 22 AUDIO
TITLE "追憶 ~傷ついたキツネたち"
PERFORMER "堀山俊彦"
ISRC JPE100701520
INDEX 00 29:58:18
INDEX 01 30:00:05
TRACK 23 AUDIO
TITLE "恋するギターのセレナード"
PERFORMER "堀山俊彦"
ISRC JPE100701530
INDEX 00 32:19:42
INDEX 01 32:21:28
TRACK 24 AUDIO
TITLE "或真敷一座"
PERFORMER "堀山俊彦"
ISRC JPE100701540
INDEX 00 33:56:13
INDEX 01 33:58:01
TRACK 25 AUDIO
TITLE "追憶 ~タネとシカケにまみれた運命"
PERFORMER "堀山俊彦"
ISRC JPE100701550
INDEX 00 35:48:74
INDEX 01 35:50:61
TRACK 26 AUDIO
TITLE "ラミロア ~音の風景画家"
PERFORMER "堀山俊彦"
ISRC JPE100701560
INDEX 00 38:02:69
INDEX 01 38:04:57
TRACK 27 AUDIO
TITLE "『逆転を継ぐ者』"
PERFORMER "堀山俊彦"
ISRC JPE100701570
INDEX 00 40:46:27
INDEX 01 40:48:15
TRACK 28 AUDIO
TITLE "心理錠(サイコ.ロック)2007"
PERFORMER "堀山俊彦"
ISRC JPE100701580
INDEX 00 41:50:54
INDEX 01 41:52:42
TRACK 29 AUDIO
TITLE "どぶろくスタジオ"
PERFORMER "堀山俊彦"
ISRC JPE100701590
INDEX 00 43:11:11
INDEX 01 43:12:73
TRACK 30 AUDIO
TITLE "独房 ~闇のテーマ"
PERFORMER "堀山俊彦"
ISRC JPE100701600
INDEX 00 46:23:07
INDEX 01 46:24:69
TRACK 31 AUDIO
TITLE "捜査 ~核心 2007"
PERFORMER "堀山俊彦"
ISRC JPE100701610
INDEX 00 48:13:18
INDEX 01 48:15:06
TRACK 32 AUDIO
TITLE "追憶 ~忘れられた伝説"
PERFORMER "堀山俊彦"
ISRC JPE100701620
INDEX 00 49:22:27
INDEX 01 49:24:14
TRACK 33 AUDIO
TITLE "勝訴! ~オレたちの勝利"
PERFORMER "堀山俊彦"
ISRC JPE100701630
INDEX 00 51:43:48
INDEX 01 51:45:36
TRACK 34 AUDIO
TITLE "逆転裁判4.終幕"
PERFORMER "堀山俊彦"
ISRC JPE100701640
INDEX 00 53:51:44
INDEX 01 53:53:32



专辑曲目

01.逆転裁判4.序章
02.法廷休憩室 ~新たなる序曲
03.逆転裁判4.開廷
04.尋問 ~モデラート 2007
05.トランス.ロジック
06.王泥喜 法介 ~新章開廷!
07.尋問 ~アレグロ 2007
08.真実は告げる 2007
09.スリルのテーマ ~サスペンス
10.みぬく ~ほとばしれ、視線
11.追求 ~追いつめないと
12.ジングル ~今日はここまで
13.みぬきのテーマ ~魔術の子
14.牙琉 響也 ~LOVE LOVE GUILTY
15.宝月 茜 ~カガクの刑事
16.捜査 ~序盤 2007
17.留置所 ~面会の悲喜劇
18.『逆転連鎖の街角』
19.エキセントリック 2007
20.キタキツネ一家
21.着信メロディ/LOVE LOVE GUILTY
22.追憶 ~傷ついたキツネたち
23.恋するギターのセレナード
24.或真敷一座
25.追憶 ~タネとシカケにまみれた運命
26.ラミロア ~音の風景画家
27.『逆転を継ぐ者』
28.心理錠(サイコ.ロック)2007
29.どぶろくスタジオ
30.独房 ~闇のテーマ
31.捜査 ~核心 2007
32.追憶 ~忘れられた伝説
33.勝訴! ~オレたちの勝利
34.逆転裁判4.終幕

正在读取……

这里是其它用户补充的资源(我也要补充):

暂无补充资源
正在加载,请稍等...

点击查看所有23网友评论

 

(?) [公告]留口水、评论相关规则 | [活动]每日签到 轻松领取电驴经验

    小贴士:
  1. 类似“顶”、“沙发”之类没有营养的文字,对勤劳贡献的楼主来说是令人沮丧的反馈信息。
  2. 提问之前请再仔细看一遍楼主的说明,或许是您遗漏了。
  3. 勿催片。请相信驴友们对分享是富有激情的,如果确有更新版本,您一定能搜索到。
  4. 请勿到处挖坑绊人、招贴广告。既占空间让人厌烦,又没人会搭理,于人于己都无利。
  5. 如果您发现自己的评论不见了,请参考以上4条。