v

您的位置:VeryCD音乐华语音乐

音乐资源事务区


张国荣 -《The Best Of Leslie Cheung》日版[APE]

  • 状态: 精华资源
  • 摘要:
    发行时间1998年08月
    地区香港
    语言普通话,粤语
  • 时间: 2006/05/11 00:42:48 发布 | 2006/05/11 00:42:48 更新
  • 分类: 音乐  华语音乐 

请将手放开

精华资源: 198

全部资源: 200

相关: 分享到新浪微博   转播到腾讯微博   分享到开心网   分享到人人   分享到QQ空间   订阅本资源RSS更新   美味书签  subtitle
该内容尚未提供权利证明,无法提供下载。
专辑中文名The Best Of Leslie Cheung
歌手张国荣
资源格式APE
版本日版
发行时间1998年08月
地区香港
语言普通话,粤语
简介

IPB Image


专辑介绍:

您喜欢这位性感的集偶象和实力于一身的歌手吗?虽然张国荣近年投入了很大的时间和精力在影坛方面发展,很多时候都会令您觉得他现在更象影星而非歌星,但他的歌坛地位及演唱实力还是不能被质疑的。
更新cue文件.方便之前下载不了cue文件的朋友

引用
PERFORMER "张国荣"
TITLE "The Best Of Leslie Cheung(日版)"
FILE "张国荣.-.[The.Best.Of.Leslie.Cheung].专辑.(Ape).ape" WAVE
TRACK 01 AUDIO
TITLE "MY GOD"
PERFORMER "张国荣"
INDEX 01 00:00:00
TRACK 02 AUDIO
TITLE "My God"
PERFORMER "张国荣"
INDEX 01 04:20:32
TRACK 03 AUDIO
TITLE "追"
PERFORMER "张国荣"
INDEX 01 08:28:40
TRACK 04 AUDIO
TITLE "红"
PERFORMER "张国荣"
INDEX 01 13:52:68
TRACK 05 AUDIO
TITLE "夜半歌声"
PERFORMER "张国荣"
INDEX 01 18:40:56
TRACK 06 AUDIO
TITLE "今生今世"
PERFORMER "张国荣"
INDEX 01 20:53:21
TRACK 07 AUDIO
TITLE "偷情"
PERFORMER "张国荣"
INDEX 01 25:16:44
TRACK 08 AUDIO
TITLE "有心人"
PERFORMER "张国荣"
INDEX 01 30:13:65
TRACK 09 AUDIO
TITLE "谈情说爱"
PERFORMER "张国荣"
INDEX 01 34:43:35
TRACK 10 AUDIO
TITLE "这些年来"
PERFORMER "张国荣"
INDEX 01 38:39:23
TRACK 11 AUDIO
TITLE "永远记得"
PERFORMER "张国荣"
INDEX 01 43:39:03
TRACK 12 AUDIO
TITLE "谈恋爱"
PERFORMER "张国荣"
INDEX 01 47:41:09
TRACK 13 AUDIO
TITLE "Twist & Shout"
PERFORMER "张国荣"
INDEX 01 51:22:38
TRACK 14 AUDIO
TITLE "当爱已成往事"
PERFORMER "张国荣"
INDEX 01 54:02:66
TRACK 15 AUDIO
TITLE "红颜白发"
PERFORMER "张国荣"
INDEX 01 59:04:72
TRACK 16 AUDIO
TITLE "Everybody"
PERFORMER "张国荣"
INDEX 01 62:30:22
TRACK 17 AUDIO
TITLE "Love like magic"
PERFORMER "张国荣"
INDEX 01 66:28:36
自己复制到记事本.把后缀改成cue



专辑曲目

01.MY GOD
02.My God
03.追
04.红
05.夜半歌声
06.今生今世
07.偷情
08.有心人
09.谈情说爱
10.这些年来
11.永远记得
12.谈恋爱
13.Twist & Shout
14.当爱已成往事
15.红颜白发
16.Everybody
17.Love like magic

正在读取……

这里是其它用户补充的资源(我也要补充):

暂无补充资源
正在加载,请稍等...

点击查看所有38网友评论

 

(?) [公告]留口水、评论相关规则 | [活动]每日签到 轻松领取电驴经验

    小贴士:
  1. 类似“顶”、“沙发”之类没有营养的文字,对勤劳贡献的楼主来说是令人沮丧的反馈信息。
  2. 提问之前请再仔细看一遍楼主的说明,或许是您遗漏了。
  3. 勿催片。请相信驴友们对分享是富有激情的,如果确有更新版本,您一定能搜索到。
  4. 请勿到处挖坑绊人、招贴广告。既占空间让人厌烦,又没人会搭理,于人于己都无利。
  5. 如果您发现自己的评论不见了,请参考以上4条。