v

您的位置:VeryCD音乐古典音乐

音乐资源事务区


Bruce BecVar -《法兰明高吉他》(Hifi Flamenco Guitar)[FLAC]

  • 状态: 精华资源
  • 摘要:
  • 时间: 2006/04/12 16:01:26 发布 | 2006/04/12 16:01:26 更新
  • 分类: 音乐  古典音乐 

izee

精华资源: 9

全部资源: 9

相关: 分享到新浪微博   转播到腾讯微博   分享到开心网   分享到人人   分享到QQ空间   订阅本资源RSS更新   美味书签  subtitle
该内容尚未提供权利证明,无法提供下载。
专辑英文名Hifi Flamenco Guitar
专辑中文名法兰明高吉他
艺术家Bruce BecVar
版本[FLAC]
简介

IPB Image


专辑介绍:

  初以为此张Flamenco也是那些以速席、强劲的节拍为主的吉他音乐,当听完两首后,感觉就好像吃时时令的水果一样,也好像在一次愉快的旅程中那样舒畅——relax!吉他手Bruce BecVar正想籍此碟给听众进入他的吉他“moods”的音乐世界里,因此选曲非常平易近人,无论你是新接触法兰明高或热爱者都有簇新感受。

音轨信息:
REM DISCID DE10CB0F
REM COMMENT "ExactAudioCopy v0.95b4"
PERFORMER "Bruce BecVar"
TITLE "hi fi flamenco guitar"
FILE "
E:\Music\Encode\Bruce.BecVar.-.[Hifi.Flamenco.Guitar].专辑.(flac).flac" WAVE
TRACK 01 AUDIO
TITLE "flamenco highlife"
PERFORMER "Bruce BecVar"
INDEX 01 00:00:00
TRACK 02 AUDIO
TITLE "caminata flamenco"
PERFORMER "Bruce BecVar"
INDEX 00 04:59:70
INDEX 01 05:01:61
TRACK 03 AUDIO
TITLE "forever in my heart"
PERFORMER "Bruce BecVar"
INDEX 00 09:47:17
INDEX 01 09:49:07
TRACK 04 AUDIO
TITLE "love knows no bounds"
PERFORMER "Bruce BecVar"
INDEX 00 15:01:30
INDEX 01 15:03:23
TRACK 05 AUDIO
TITLE "razamataz"
PERFORMER "Bruce BecVar"
INDEX 00 21:13:45
INDEX 01 21:15:39
TRACK 06 AUDIO
TITLE "waves"
PERFORMER "Bruce BecVar"
INDEX 00 25:01:72
INDEX 01 25:03:70
TRACK 07 AUDIO
TITLE "secrets from afar"
PERFORMER "Bruce BecVar"
INDEX 00 29:38:32
INDEX 01 29:40:36
TRACK 08 AUDIO
TITLE "jacarandigo"
PERFORMER "Bruce BecVar"
INDEX 00 35:37:06
INDEX 01 35:38:72
TRACK 09 AUDIO
TITLE "time dreams"
PERFORMER "Bruce BecVar"
INDEX 00 41:18:46
INDEX 01 41:20:50
TRACK 10 AUDIO
TITLE "spining the light fantastic"
PERFORMER "Bruce BecVar"
INDEX 00 44:35:55
INDEX 01 44:37:41
TRACK 11 AUDIO
TITLE "sands of time"
PERFORMER "Bruce BecVar"
INDEX 00 48:57:14
INDEX 01 48:59:05
TRACK 12 AUDIO
TITLE "noche pintada"
PERFORMER "Bruce BecVar"
INDEX 00 54:53:07
INDEX 01 54:54:69
TRACK 13 AUDIO
TITLE "jamaicadoo"
PERFORMER "Bruce BecVar"
INDEX 00 58:12:52
INDEX 01 58:14:45
TRACK 14 AUDIO
TITLE "song for jenna"
PERFORMER "Bruce BecVar"
INDEX 00 62:55:67
INDEX 01 62:57:54
TRACK 15 AUDIO
TITLE "shaktipat"
PERFORMER "Bruce BecVar"
INDEX 00 66:40:41
INDEX 01 66:42:32


请将上面蓝色部分复制到记事本,并修改紫色部分所指向的文件路径,保存为*.cue
AAC文件为48kbps的完整音轨采样,在此供大家试听用....(foobar2000不支持对此AAC文件寻轨)
条件允许下,请自觉支持正版!



专辑曲目

01.flamenco highlife
02.caminata flamenco
03.forever in my heart
04.love knows no bounds
05.razamataz
06.waves
07.secrets from afar
08.jacarandigo
09.time dreams
10.spining the light fantastic
11.sands of time
12.noche pintada
13.jamaicadoo
14.song for jenna
15.shaktipat

正在读取……

这里是其它用户补充的资源(我也要补充):

暂无补充资源
正在加载,请稍等...

点击查看所有23网友评论

 

(?) [公告]留口水、评论相关规则 | [活动]每日签到 轻松领取电驴经验

    小贴士:
  1. 类似“顶”、“沙发”之类没有营养的文字,对勤劳贡献的楼主来说是令人沮丧的反馈信息。
  2. 提问之前请再仔细看一遍楼主的说明,或许是您遗漏了。
  3. 勿催片。请相信驴友们对分享是富有激情的,如果确有更新版本,您一定能搜索到。
  4. 请勿到处挖坑绊人、招贴广告。既占空间让人厌烦,又没人会搭理,于人于己都无利。
  5. 如果您发现自己的评论不见了,请参考以上4条。