v

您的位置:VeryCD音乐华语音乐

音乐资源事务区


BEYOND -《新天地》(FOREVER VOL.1)EP KINN′S首版 cue文件作为附件已添加[APE]

  • 状态: 精华资源
  • 摘要:
    发行时间1994年
    地区大陆,香港
    语言粤语
  • 时间: 2007/06/18 08:15:41 发布 | 2007/06/18 08:15:41 更新
  • 分类: 音乐  华语音乐 

baiqcf

精华资源: 77

全部资源: 80

相关: 分享到新浪微博   转播到腾讯微博   分享到开心网   分享到人人   分享到QQ空间   订阅本资源RSS更新   美味书签  subtitle
该内容尚未提供权利证明,无法提供下载。
专辑中文名新天地
专辑英文名FOREVER VOL.1
歌手BEYOND
资源格式APE
版本EP KINN′S首版 cue文件作为附件已添加
发行时间1994年
地区大陆,香港
语言粤语
简介

IPB Image


专辑介绍:

无论何时何地,家驹对音乐的爱对人生的执着都无不深深打动着我。现如今的香港,有谁才情能比家驹?家驹的可贵就在于他永远谦虚上进,永远不放松,他的每一支歌都是精品。
《昔日舞曲》初听不好听(相比其他作品),可是你越听就会觉得他越有味道。

[codebox]EAC 抓取日志文件从28. 七月 2006, 9:01 用于 CD
Beyond / BEYOND FOREVER VOL.1 新天地

使用驱动器 :SONY DVD-ROM DDU1615 Adapter: 2 ID: 0
读取模式 :不使用 C2,使用精确流, 禁用缓存的安全模式
组合读写偏移校正:0
读取 Lead-In 和 Lead-Out : 否

所用输出模式:Monkey's Audio Lossless Encoder v3.99 DLL
Normal Lossless Compression

其他选项 :
用静音填充抓取中丢失偏移的采样 : 是
去除首尾静音块 : 否
Win NT 及 2000 本地 Win32 接口


范围状态及错误
已选择范围
文件名 E:\BEYOND FOREVER VOL.1 新天地.ape

峰值电平 99.4 %
范围质量 100.0 %
CRC 7CB905F0
复制成功

没有错误发生

状态报告结尾[/codebox]

[codebox]PERFORMER "Beyond"
TITLE "BEYOND FOREVER VOL.1 新天地"
FILE "BEYOND FOREVER VOL.1 新天地.ape" WAVE
TRACK 01 AUDIO
TITLE "新天地"
PERFORMER "Beyond"
INDEX 01 00:00:00
TRACK 02 AUDIO
TITLE "LONG WAY WITHOUT FRIENDS(东方宝藏英文版)"
PERFORMER "Beyond"
INDEX 01 03:27:12
TRACK 03 AUDIO
TITLE "昔日舞曲(仿古混音)"
PERFORMER "Beyond"
INDEX 01 07:20:25
TRACK 04 AUDIO
TITLE "LONG WAY WITHOUT FRIENDS(东方宝藏音乐版)"
PERFORMER "Beyond"
INDEX 01 11:49:50[/codebox]



专辑曲目

01. 新天地
02. LONG WAY WITHOUT FRIENDS(东方宝藏英文版)
03. 昔日舞曲(仿古混音)
04. LONG WAY WITHOUT FRIENDS(东方宝藏音乐版)

正在读取……

这里是其它用户补充的资源(我也要补充):

暂无补充资源
正在加载,请稍等...

点击查看所有13网友评论

 

(?) [公告]留口水、评论相关规则 | [活动]每日签到 轻松领取电驴经验

    小贴士:
  1. 类似“顶”、“沙发”之类没有营养的文字,对勤劳贡献的楼主来说是令人沮丧的反馈信息。
  2. 提问之前请再仔细看一遍楼主的说明,或许是您遗漏了。
  3. 勿催片。请相信驴友们对分享是富有激情的,如果确有更新版本,您一定能搜索到。
  4. 请勿到处挖坑绊人、招贴广告。既占空间让人厌烦,又没人会搭理,于人于己都无利。
  5. 如果您发现自己的评论不见了,请参考以上4条。